&title=You Wouldn't Get This
&artist=The Musical Ghost
&first=0.05
&lv_5=13+
&des=The Musical Ghost
&inote_5=(170)
{1},
{16}5,,4,,6x/3x,,5,4,5,4,5,,4q5-7-1-3-5<4b[4:15]/6,,3/7,,4bx/6bx,,
{1},,,{16},,{4},,,
{8}5x/4x,4,4/3,3,3/2,2,2/1,1,1x/8x,8,8/7,7,7/6,6,6/5,5,
{16}4x,4,3,3,2,2,1,1,8x,8,7,7,6,6,5,5,
{32}4x,3,2,1,8,7,6,5,4x,3,2,1,8,7,6,5,4x,3,2,1,8,7,6,5,
{4}4xb>4-7-5-1-3-8b[4:15],4bx,,,,,,,,,,,,,,,,
{16}2h[8:7],,4,,,4,,,4,,,4,,,4,,6h[8:7],,8,,,8,,,8,,,8,,,8,,
3h[8:7],,1,,,1,,,1,,,1,,,1,,7h[8:8],,5,,,5,,,
{16}E5,E6,E7,E8,E1,E2,E3,E4,
E5f,,,,2x/7x,,6,5,6,5,6,,7x/4x,,,,
5,,4,,7x/2x,,3,4,3,4,3,,2x/5x,,,,
4,,5,,2x/7x,,6,5,6,5,6,,7x/4x,,,,
5,,4,,7x/2x,,6x,5,,7x,8,,2x,1,,4x,
{8}3x>1[8:1],3,B6/B5,,4,3,2x/5x,,
6x<8[8:1],6,B3/B4,,5,6,7x/4x,,
{16}2x,,2,3,,3,4,,4,5,,5,6,,6,,
{1}7x>6[4:2],
{8}3h[8:1]/6h[8:1],,3h[8:1]/6h[8:1],,3h[8:1]/6,5,3/6h[8:1],4,
3h[8:1]/6h[8:1],,3/6h[8:1],4,3h[8:1]/6,5,3h[8:1]/6h[8:1],,
2x/5x,3/6,4/7,6/3,1/8,3/4,1/8,5/6,
{16}3b,6,3,6,2b,7,2,7,
{32}1b,2x,3x,4x,5x,6x,,,8b,7x,6x,5x,4x,3x,,,
{4}1bx-4[4:1],4-7[4:1],7-2[4:1],2-5[4:1],5-8[4:1],8-3[4:1],3-5[8:1]*-1[8:1],,
7x<5[4:1],5-1[4:1],1>3[4:1],3-7[4:1],7>1[4:1],1-5[4:1],5>3[8:1]*<7[8:1],,
2x<1-7[4:1],7<6-4[4:1],4>3-1[4:1],1<8-6[4:1],6>5-3[4:1],3>2-8[4:1],8-3[8:1]*-5[8:1],,
7xv5[4:1],5v3[4:1],3v1[4:1],1w5[2:1],1bx,,,Cf/B3/B2/E3/B6/E7/B7,
{8}8bx-5[4:1],8,5-2[4:1],5,2-7[4:1],2,7-4[4:1],7,4-1[4:1],4,1-6[4:1],1,6-4b[8:1]*-8[8:1],6,,,
2x>4[4:1],2,4-8[4:1],4,8<6[4:1],8,6-2[4:1],6,2<8[4:1],2,8-4[4:1],8,4<6b[8:1]*>2[8:1],4,,,
7x>8-2[4:1],7,2>3-5[4:1],2,5<6-8[4:1],5,8>1-3[4:1],8,3<4-6[4:1],3,6<7-1[4:1],6,1-4b[8:1]*-6[8:1],1,,,
2x-6[4:1],2,6<8[4:1],6,8-4[4:1],8,4>2[4:1],4,
6h[4:2],,,,
{16}A1,A8,A7,A6,A5,A4,A3,A2,
{8}1bx>6[4:1]/Cf,,,,B2/B3,,,,8<3[4:1],,8,,B7/B6,,,,
1>6qq4[2:1],,,,B7/B8,,,,8<3pp5[2:1],,8,,B2/B1,,,,
1x>4qq5[2:1]/7x,,,,B7/B6,,,,8<5pp4[2:1]/2,,8,,B2/B3,,,,
1>6qq4[2:1]/7,,,,B7/B8,,,,
{16}8x/2x,,1,1,1s5[4:1],1,1,1,1,,,,,,,,
{8}2h[8:1]/7h[8:1],,2h[8:1]/7h[8:1],,2h[8:1]/7,8,2/7h[8:1],1,
2h[8:1]/7h[8:1],,2/7h[8:1],1,2h[8:1]/7,8,2h[8:1]/7h[8:1],,
2h[8:1]/7,8,2h[8:1]/7,8,2/7h[8:1],1,2/7h[8:1],1,
2h[8:1]/7,8,2/7h[8:1],1,2h[8:1]/7,8,2h[8:1]/7h[8:1],,
3x/4x,2/5,6/5,7/4,3/4,1/6,6/5,8/3,
3x/4x,1/8,5/6,1/8,3x/4x,1/7,5/6,,
{16}3b,6,3,6,2b,7,2,7,
{32}1b,2x,3x,4x,5x,6x,,,8b,7x,6x,5x,4x,3x,,,
{4}1bx,,1w5b[8:1],1/Cf,
{8}3bx-8[8:1]/7bx,3,7-4[8:1],7,2-5[8:1],2,6-1[8:1],6,2-6[8:1],2,8-4[8:1],8,8<5[8:1]*>3[8:1],,8,,
{16}1x,1x,1x,1x,{8}1-5[8:1],1,7-3[8:1],7,2,2,
6,5b/4b,3,5b/4b,{16}6,,1b/8b,2/7,3/6,,,,
{8}1x/2x-6[8:1],3,1-4-7[4:1]/2,8,1/2,3,3h[8:1],,
{16}8x,8,8,8,8,8,8,8,8-4[8:1],,1/7,,8,,3x,4x,
3x,,1x,2,,7x,8,,6x,5h[8:1],,,4x/7x,,5/6,,
E2,E7,E4,E8,E3,E6,E1,E5,B2,B6,B4,,1b/8b,,,,
{8}6bx-1[8:1]/2bx,6,2-5[8:1],2,7-4[8:1],7,3-8[8:1],3,7-3[8:1],7,1-5[8:1],1,1>4[8:1]*<6[8:1],,1,,
{16}8x,8x,8x,8x,{8}8-4[8:1],8,2-6[8:1],2,7,7,
3,4b/5b,6,4b/5b,{16}3,,8b/1b,7/2,6/3,,,,
{8}8x/7x-3[8:1],6,8-5-2[4:1]/7,1,8/7,6,6h[8:1],,
{16}1x,1,1,1,1,1,1,1,1-5[8:1],,8/2,,1,,6x,5x,
6x,,8x,7,,2x,1,,3x,4h[8:1],,,5x/2x-6[8:1],,4/3,,
{8}2x/5x,,,,4w8b[8:1],3/5,4b/Cf,,
1bx/8bx-5[8:1],7,8/2-6[8:1],1,2/8^5[8:1],7,8/4^1[8:1],3,4/7-2[8:1],8,7/3-7[8:1],4,3x-1[8:1]*-5b[8:1],,3x,,
6/3-7[8:1],4,3/8-4[8:1],1,8/2-5[8:1],3,2/6-3[8:1],7,6/4^1[8:1],5,4/8-4[8:1],7,8b<5b[8:1]*>3[8:1],,8b,,
8x/1x-4[8:1],2,1/7-3[8:1],8,7/1^4[8:1],2,1/5^8[8:1],6,5/2-7[8:1],1,2/6-2[8:1],5,6x-8[8:1]*-4b[8:1],,6x,,
{16}4x,4,3,3,2,2,1,1,8x,8,7,7,6,6,5,5,
3hbx[8:1]/4hbx[8:1],,,6hbx[8:1]/7hbx[8:1],,,1hbx[8:1]/2hbx[8:1],,,
4hbx[8:1]/5hbx[8:1],,,1b-6[8:1]/8b-3[8:1],,2/7,,1b/8b/E1f,
E
