&title=GIGANTO MACHINA
&artist=Supa7onyz vs. Sound piercer
&first=1.69
&lv_5=14+
&des_5=2xHT
&inote_5=
(77.7){64}A1,B1,C,B5,{16}A5,{8},,,{64}8/2,3/7,{32}4/6h[32:31],{16},,,,,,,{2}4,
{64}1v4[16:1],2,{32}3h[96:5],{16},,,{64}1/7v2[16:1],6,{32}5h[96:5],{16},,,{64}7/2v5[16:1],
3,{32}4h[96:5],{16},,,{64}1/2,8,{32}7h[96:5],{16},,,{2}2h[2:1]/6h[1:1],
,{8}1h[4:1],3,5h[4:1],7,
2h[4:1],4,6h[4:1],8,{16}4,2/8,{32}3,1,{16}2,{32}3,8,{16}2,{32}3,7,{16}2,
{32}3,6,{16}2,{32}3<3[8:1],5,{16}2,{32}3,4,{16}2,{8}3b,{16}5,7/1,{32}6,5,{16}7,{32}6,4,{16}7,{32}6,3,{16}7,
{32}6,2,{16}7,{32}6,1,{16}7,{32}6,8,{16}7,{32}2,2,8,8,{16}1b/7,{32}3,7,{16}1,5/4,{32}7,3,{16}5,{32}7,7,1,1,
{16}2/8b,{32}6,2,{16}8,4/5,{32}2,6,{16}4,{32}1,1,6,6,{8}3b/7,{96}1/7,2,3,4,5,6,7,8,1,2,3,4,{8}5/8h[8:1],{96}5,4,3,2,1,8,7,6,5,4,3,2,
{2}1/6h[4:1],{96}8b/1b<8-6-3>2-8-5>4-2-7<6-4-1[3:2],2/7,3/6,4/5h[32:31],{4},,,{16},,,{48},{24}3,
2,2,6/1,5,5,{64}4/8,1,2,3,4,5,6,7,8,1,2,3,4,5,6,7,
{4}8/B8/B1/B2/B3/C,{12}2/5-8[16:1],5/7,6/1,{64}8b-6>5[16:1],1,2,3,{16}4h[16:3],{8},8bq1[24:5],{24}2,1,1,
{64}8b/7b,6,5,4,{16}3h[16:1],{8},{24}6<6[24:5],{48}5,3,{24}5,2,{48}1,7,{24}1,{12}6b,3h[12:1],,{24}2h[8:1],5,5,6h[8:1],3,3,
4h[8:1],7,7,8h[8:1],5,5,{12}6b,5/7,{48}3,6,4,5,{12}3h[12:1],1,,{24}6/1v6[16:1],2,3,6/4v1[16:1],7,8,
{48}1b/2b,3,{24}4,,{48}4x/6x,7,{12}8,{24}6v1[16:1],{48}3,5,{24}4,{48}7,2,8,1,{24}7,{32}6b/2b>5[16:1],{16},{32}4,{8},{4}2b/7bv4[16:1],
{8}1b/7b,{24}2,2,2,{12}7-5b[32:1]/3-1b[32:1],8/4,1/5,{8}3b/7b,{24}1/6,1,1,7/2>1[24:5],7,7,3/8,3,3,
{48}2b/1b,8,7,6h[16:1],{6},{24}7,{48}4,6,{24}5,7,{48}1,8,{24}2,{32}5,5,5,5,5,5,5,5,{24}5bh[8:1],3,3,2h[8:1],4,4,
5h[8:1],1,1,8h[8:1],6,6,{12}7b-5[24:1],1/7,{48}1,8,{24}1,{12}7/2-8[24:1],{24}3,3/4,{12}3,2/7-1[24:1],{24}6,5/6,{12}6,
7/3>1[24:1],{24}4,5/6,{12}4,3/6,{24}5,4/3,{12}5,{24}1h[8:1],8,7,6,2,3,{64}6/4,7,8,1,2,3,4,5,{96}6/8,1,2,3,4,5,6,7,8,1,2,3,
{2}4h[8:3]/7bh[4:1],{96}6b/1bv4[16:1],2/5,{48}3/4,{24},{12}8/7,,{16}1b/5b-7>8[16:1],8,{8}2/6,
{16}5b,4,3,{48}4/8,,2,{20}1v4[16:1],6,{40}5,3,{20}5,2,{12}1b/5,6,,{24}6h[8:1],5,5,4h[8:1],7,7,
8h[8:1],3,3,2h[8:1],7,7,6h[8:1],3,3,4,5,5,{8}3-8s4[6:1]/6-1z5[6:1],2/7,{4}3b/6b,
{28}6,6,6,6,6,6,6,4xq1[16:1],{70},{20}7,{40}7,2,{20}8,{40}3,6,{12}4bp7[16:1],5,,{4}4b/6bp2[16:1],
{8}3b/6b,{24}1,1,1,{12}3/8,1/6,2/7,{16}1s5[24:1]/8z4[24:1],2/7,{24},3/6,3/6,{32}1b/8b,{16},{32}3,7,1,,6,
{24}5/3v8[20:1],2,2,{192}1/7,{48},{192}6,{96},,,,,{48}2,8,{20}3bp1[16:3],7,{40}6,1,{20}6,2,{12}3b,7,,{24}2h[8:1],7,7,6h[8:1],1,1,
3h[8:1],7,7,5h[8:1],2,2,4h[8:1],6,6,5,{48}3,4,{24}2,{64}1/7,2/6,3/5,4h[192:31],{48},{12}8,{24},8,{16}3b/7b,1/5,{24},{12}1/5,
{36}3,3,3,3,3,3,3,3,3,5,{45},{20}6,{40}7,1,{20}7,{40}3,5,{16}3h[16:3],6,7,8,{24}2/1h[12:1],3,3,{48}4,8,4,8,4,8,
{64}3,2,1,8,7,6,5,4,3,2,1,8,7,6,5,4,3/7,8,1,2,3,4,5,6,7,8,1,2,3,4,5,6,(155.4){2}7/2bh[2:3],
,{32}E6,E5,E4,E3,E2,E1,E8,E7,B5,B4,B3,B2,B1,B8,B7,B6,
{2}Ch[2:1],{6}3h[3:1],5h[6:1],,7h[3:1],
1h[6:1],,2h[3:1],8h[6:1],,6h[3:1],
4h[6:1],,{2}2h[1:2]/6h[1:1],
,,,{4}8<4[2:1],
2,
4>8[2:1],3,8<4[2:1],2,
4,2,{8}3/5,1,{16}7,2,{8}5,
{16}7,3,{8}5,{16}7,1,{8}5,{16}7,4,{8}5,{16}7,8,{8}5,
{16}7<7[4:1],3,{8}5,{4}7,{8}4,4,{16}2,7,{8}4,
{16}2,6,{8}4,{16}2,8,{8}4,{16}2,5,{8}4,{16}2,1,{8}4,
{16}2,6,{8}4,{16}2,2,7,7,{8}4b/6,{16}1,7,{8}3,{16}8,2,
{8}6,{16}2,6,4,4,5,5,{8}3b/6,{16}4,6,{8}2,{16}5,3,
{8}7,{16}3,7,1,1,8,8,{4}7/3bh[4:1],{48}1,2,3,4,5,6,7,8,1,2,3,4,
{4}5/1bh[4:1],{48}4,3,2,1,8,7,6,5,4,3,2,1,{32}4/8,5,6,7,8,1,2,3,4,5,6,7,8,1,2,3,
5x,4x,5x,4x,5x,4x,5x,4x,{16}5x,3x,6x,2x,{8}7x,1/8,{16}3,5,2,7,
4,6,3,8,4,5,2,6,{8}3,1/7,{16}5,4,7,3,
{32}6,5,{16}6,3,7,{32}4,5,{16}4,6,3,{8}5,2/8,{16}4,7,2,8,
3,6,1,7,2,5,1,8,{8}3,{16}7,4/6,,2,{8}3/5,
{24}4,6,4,5,3,5,{32}2,1,8,7,6,5,4,3,{8}2/8,4/6,{16}2,7,3,5,
2,8,4,6,3,7,4,5,{8}2,4/6,{16}8,2,6,1,
{32}7,8,{16}7,2,6,{32}1,8,{16}1,7,2,{24}6,4,6,3,5,3,{16}8,2,7,1,
{24}6,4,6,3,5,3,{16}8,2,7,1,{24}6,4,6,3,5,3,7,4,7,2,5,2,
{32}7,6,5,4,3,2,1,8,{16}3,3,6,6,{8}7/4,8/1,{16}6,4,8,2,
5,3,6,1,5,4,8,3,{8}6,8/2,{16}4,5,2,7,
{32}3,4,{16}3,7,2,{32}6,5,{16}6,3,5,{8}4,7/1,{16}5,3,7,1,
6,3,8,2,5,4,7,1,{8}5,{16}1,5/2,,8,{8}7/4,
{24}5,3,6,4,7,5,{32}8,1,2,3,4,5,6,7,{8}8/2,5/3,{16}8,2,6,4,
7,1,5,4,7,2,6,5,{8}8,6/4,{16}1,6,3,7,
{32}2,1,{16}2,6,3,{32}7,8,{16}7,1,6,{24}2,4,3,5,4,6,{16}1,7,2,8,
{24}3,5,4,6,5,7,{16}2,8,3,7,{24}2,5,3,6,4,7,2,5,3,6,4,7,
{32}2,3,4,5,6,7,8,1,{16}5-3-1-7[8:3],5,3,3,{8}5,2-4-6-8[8:3],4,2,
5-3-1[4:1],7,5qq2[8:3],2,5,8,6,5,
{16}7,8,5,4,8-6-4-2[8:3],1,4,3,{8}8,1>7[8:3],3,1,
5-3-1[4:1],8,5p3[8:3],2,5,8,6,{16}1,2,
4,3,8,1,5,4,7,8,6,3,4,1,5,4,7,5,
6,2,5,4,7,1,6,2,8,3,5,1,6,4,8,4,
5,2,6,5,8,2,5,3,7,1,5,3,8,2,6,4,
8,1,5,3,1,2,6,4,{32}8,7,6,5,4,3,2,1,8/3,4,5,6,7,8,1,2,
3/6,5,4,3,2,1,8,7,{16}3-5-7-1[8:3],3,5,5,{8}3,6-4-2-8[8:3],8,6,
8<4[4:1],1,3-5-7-1[8:3],5,3,6,8,{16}5,3,
1,2,6,5,7<7[8:3],8,4,3,{8}7,3,5,3,
2/8,{16}3,4,2>2[8:3],1,5,6,{8}2,6,4,{16}6,3,
7,1,6,4,8<4[4:1],2,5,3,{8}8,3,1,{16}3,8,
5,6,1,7,3,4,8,6,{8}4,2/8,{16}6,4,7,8,
5,3,1,2,6,4,8,3,{24}7,2,7,2,7,2,{16}3,6,3,6,
{24}4,5,3,6,2,7,{16}1,8,1,8,{24}2,7,3,6,4,5,1,8,2,7,3,6,
{32}4,5,6,7,8,1,2,3,{16}5,5,4,4,{4}7b-4b[16:1]/3b-8b[16:1],7b-2b[16:1]/3b-6b[16:1],
7b-3b[16:1]/3b-7b[16:1],{32}7b/3b,Cf/B7/B3,{16},,,{32}5bq1b[16:1]/1bq5b[16:1],{4},{32}Cf/B5/B1,{16},,,{12}2/7,
4/6,3/5,2/7,3/8,1/6,{8}3/7,2/6,1/5,8/4,
{16}1,5,2,6,3,7,{8}4,{32}5/8,4/7,3/6,2/5,1,8,7,6,5/8,4/7,3/6,2/5,1,8,7,6,
5/8-4b[16:1],4/7,3/6,2/5,1,8,7,6,{4}5/8b,{8}3b/6b,{16}1,1,{8}2/6,{16}8,8,
{8}7/3,{16}1,1,{8}3/7,{16}8,8,{18}2b,2,2,2,3,3,3,3,5,
{10}4,6,{20}7,1,{10}8,{20}3,5,{8}4,3,2/7,1/6,
{24}2,5,3,4,{48},{16}2,{24}6,1,7,8,{48},{16}5,3,3,5,1,7,7,1,5,
{24}2,6,2,6,3,7,{32}4w8b[32:3],8,4,8,4,8,4,8,{2}4b,
E
