&title=Too Horny to Live, Too Dead to Cum
&artist=Criminal Code
&first=0.02
&des=MisakaGu & Dark
&lv_5=14
&des_5=MisakaGu & Dark
&inote_5=
(146){4},,,,{1}4h[2:1]/5<8p3[2:3],
B2h[2:1],
5h[2:1]/4>1q6[2:3],
B7h[2:1],
{4}4/3qq3[4:1],5,6pp6[4:1],4,
2qq1[4:1],5,7-4[8:1],7/4,
{8}3b/5b,2/6,1/7,8,4/5,3/6,2/7,8/1,
5/6,4/7,8/3,1/2,1b/8b,{16}2,1,2,4,3,5,
{8}4h[8:1],{16}5,4,5,3,{8}6h[8:1],5,{16}5,6,4,7,5,6,
{8}4h[8:1],{16}5,4,{8}5h[8:1],{16}4,5,2,4,3,4,{8}3-8[8:1],2,
4/3,{16}7,7,{8}8h[8:1],{16}7,8,7,1,8,2,{8}1-5[8:1],2/1,
8,{16}7,7,{8}4h[8:1],{16}6,4,{8}5,2/4,3/5,4/6,
5-1[8:1]/7-4[8:1],5/7,{4}5/7,{8}7/8,1/8,{16}3,4,2,5,
{8}4/3,4/5,5/6,4/7,{16}7,8,6,1,{8}8/7,6/1,
8/7,{16}7,8,6,5,6,4,5,2,4,3,7,5,6,2,
{24}7x,8x,1x,2x,{12}3x,5x,7x,1x,3x,5x,{48},,,,{16}7x,,,3x,
{8}4bx/5bx,{16}6,6,3h[16:3],7,{8}7,{16}3h[16:3],8,{8}8,3h[4:1],1,
7h[16:3],{16}4,4,7h[16:3],3,{8}3,{16}7h[16:3],2,{8}2,1-5[8:1],7/8,
1b/8b,{16}7,7,4h[16:3],6,{8}6,{16}3h[16:3],5,{8}5,2h[4:1],4,
5h[16:3],{16}3,3,6h[16:3],2,{8}2,{32}1x/7h[4:1],2x,3x,4x,{8}5x,,,6b/4b,
6,6/B5,6,5b/2b,2,2/B4,2,
7b/4b,7,7/B5,7,1b/8b,1,{32}1/8,7/2,3/6,4/5,,,,,{16}5b,
4,6,2,6b,5,7,3,5b,4,6,2,6b,5,7,{32}1,2,
3,4,5,6,7,8,1,2,{24}3x,4x,5x,6x,7x,8x,{16}1x,2x,3x,4x,{4}5xw1[8:1],
5b,{8}7-5[8:1],6,{4}3v8[8:1],{8}4-6[8:1],4-2[8:1],
,,7>2[12:1],6,5>2[8:1],5,{4}6z2[8:1],
1b,{8}1,1-3[8:1],4-7[8:1],1,{4}4,
3v8[8:1],{16}7-4[16:1],,,7,,,{8}1,{4}1>4[8:1]*<6[8:1],
1b,{8}5<7[8:1],5-2[8:1],,,1-6[8:1],2,
{4}1/3-8[8:1],3/5-2[8:1],5/1-6[8:1],{8}1,4,
4,{32}4,5,6,7,{8}8,{16}3,3,4,6,5,7,2,1,{8}3,
6-4-8z4b[2:1],3-5-1s5[8:3],,,,,{4}A5/A4/D5f,
{16}3-1[8:1],4,3,4,{8}3,5-1[8:1],{4}1V73[4:1],{8}4>1[8:1],4,
{4}4<7[8:1],4-8[8:1],8>3[8:1]*<5[8:1],8bxw4[8:1],
8b,{16}6p3[8:3],5,6,5,{8}6,1b,{4}1b-5[8:1],
1/8,{16}4/6,,,2/4,,,{8}5/7,{4}1bs5[8:1]/8bz4[8:1],
1b/8b,{16}6p3[4:1],3,5,4,{4}6,{8}1<2[8:3],1,
{4}1-5[8:1],1,{12}7v4[8:1]/1v4[8:1],7/1,7/1,1/7,{96},,,,,,,,,,,,,,,,{32}2,
1,8,7,6,5,4,3,2,1,{48}8x,,7x,,6x,,5x,,4x,,3x,,{16}2x,7x,5x,6x,2,4,3,
8x,6,7,2,4,3,1,2,8,1,7,8,{4}5b/4b,
{8}4b/5b,{16}3,4,3,2h[8:1],,1,2,8,3,7,4,6,5,7,
{8}4,5/6,1/8h[8:1],{16}5,8,4,7,3,6,2,5,1,4,
{8}1h[8:1],8,7h[8:1],{16}6,7,4,5,2,3,1,8,5,6,
{8}8,8/1,1/2h[8:1],{16}3,2,8,1,6,5,{24}8,1/7,2/6,3/5,{12}4,
{24},,,{8}3,8/2<7[8:1],{16}6,6,{8}2>5[8:1],{16}6,6,{8}2,7,
8<5[8:1],{16}4,4,{8}8-3[8:1],{16}2,2,{8}8<5[32:3],4,{32}4x,3x,2x,1x,,4x,3x,2x,
{4}1xw5[8:1],1b,3/7>3[4:1],3<6[4:1],
6<1[4:1],1s5[8:3],{8}5,4,3-7[8:1],2,
3b,{16}6,6,{8}8-3[8:1],6,8,{16}5,5,4,6,1,8,
{8}3h[8:1],7h[8:1],{16}6,7,2,1,4,5,8,7,{32}5x/4x,3,2,1,8,7,6,5,
{8}4/8,7,6/2h[8:1],{16}3,2,4,3,5,5,{32}2,1,8,7,6,5,4,3,
{8}2-6[8:1],6-4[8:1],2,8,8-4[8:1],4<7[8:1],8,3,
{4}1b,6/2>6[4:1],6<2[4:1],2>6[4:1],
6<1[4:1],1>4[4:1],4<6[4:1],6<8[4:1],
8pp4[4:3],B7,B6,E6,
{1}B5h[4:3]/E6h[4:3]/B6h[4:3],
{8}4,5/4,{16}6,5,,4,{8}5,{16}7-4[8:1],5,6,5,{8}7,
3,4/3,{16}5,4,,3,{8}4,{16}2,4,3-8[8:1],5,4,6,
{8}3,5,{16}6,5,,3,{8}5,{16}7-1[8:1],5,6,4,{8}7,
4,5/4,{16}3,4,,6,{8}4,{16}2,4,3,8,4,7,
{8}5,3/5,{16}7,5,,2,{8}4,{16}7-4[8:1],8,6,1,{8}7,
3,4/3,{16}1,3,,8,{8}6,{16}2,4,3,6,4,8,
{8}2,8/1,{16}7,8,,2,{8}1,{16}7,8,6,1,{8}5,
{1}5pp8[16:11]/1pp4[16:11],
{8}3b/7b,{16}6,6,5,5,{8}8,5b/2b,{16}3,3,4,4,{8}1,
4b/7b,{16}6,6,5,5,{8}4,5b/2b,{16}3,3,4,4,{8}5,
4b/7b,{16}6,6,8,8,{8}6,5b/2b,{16}3,3,1,1,{8}3,
4b/7b,{16}6,6,3,3,{8}5,{4}4w8[16:1],B4f,
{8}6/2,6/3,6/4,5/6,7/2,7/3,7/4,7/5,
8/1,4/2,4/5,5/7,8/1,2/3,{32}4,5,4,5,4,5,{16}4,
6x,6x,3x,3x,8x,8x,{24}2x,,7x,1,{48}8,1,{96},{32}8,1,8,1,8,1-5b[16:1],7,1,7,1,7,1,7,
{1}1-5<6-3<4-1[2:5],
E7h[4:7]/B6h[4:7]/B7h[4:7],
{16},,,,,,,,,,,,,,,,1,
7,1,7,2,8,2,8,3,1,3,1,4,8,4,8,
5,8,5,8,6,8,6,8,{2}B7f,
{16}7,5,7,5,7,3,7,3,7,1,7,1,7,1,7,2,
6,3,5,4,7,2,6,3,8,1,5,4,7,2,6,6,
1,8,2,7,3,6,4,5,2,1,3,8,4,7,5,6,
{8}2qq7[2:1],{16},,,,,,,,,,,,8b/1b,1b/8b,
{4}2b/7b-3b[8:1],7b/2b-5b[8:1],2b/6bV41b[6:1],6b/8b-5b[8:1],
8b/7bV14b[6:1],3b-5b[8:1]/7b-5[8:1],3b/7b>6[4:1],{16}7b/3b,,,1b,
{8}1b-5b[8:1],8b,{16}1b,7b,{8}7b-1b[8:1],3b-5b[8:1],7b,3b,7b,
{16}1b/5b,5b/1b,,7b/3b,{8}7b/3b,{16}6bp1b[4:1]/2bp5b[4:1],6b/2b,,,,,,,,,{4}2b/8b-3b[8:1],
8b/2b-5b[8:1],2b/6bV41b[6:1],6b/8b-5b[8:1],
8b/7bV14b[6:1],3b-5b[8:1]/7b-5b[8:1],7b/3bV17b[8:1],{8}7b/3b,5b,
{4}3b/4b,{16}6b/5b,5b/6b,{8}5b/6b,{16}4b/3b,2b/5b,,6b/5b,{8}4b/7b,8b/1b,
{1}3bpp8b[8:5]/6bqq1b[8:5],
Cf/B7/B6/B5/B4/B3/B2/E5,
{32}1x,2x,3x,4x,5x,6x,7x,8x,1x,2x,3x,4x,5x,6x,7x,8x,1x,8x,7x,6x,5x,4x,3x,2x,1x,8x,{16}Cf,,,{8}6bx,
{24}5bx,6bx,5bx,{32}6bx,,,5bx,,,,,{8}3bx,{24}4bx,3bx,4bx,,3bx,{48},,,,,{16}6bx,
6bx,5bx,{8}6bx,{32},6bx,,,,,,,,,,5bx,,,,,,,{16}4bx,{8}4bx,
{16}7bx,7bx,,3bx,3bx,,,6bx,,1bx,{8}1bx,{4}1>2-4<5[8:1]*<8-6>5[8:1],
{1}1bs5s1b[4:19],
,,,,{4},,,{16},,,2/6,
3/7,4/8,{8}5/1,5/1,{16}1/5,2/6,2bx/6bx,{64}1bx/5bx,4bx/8bx,3bx/7bx,2bx/6bx,{8}1bx/5bx,
E
