&title=Cryptarithm
&artist=Sakuzyo
&first=0
&des=Beyond Legend - 改
&lv_6=15
&des_6=Beyond Legend - 改
&inote_6=
(175){4},{1},{4},,{32}8b,
7b,6b,5b,4b,3b,2b,1b,
{1}Cf/8b-3-7-4[2:1]*-5-1-4[2:1],
{4}3h[16:1]/5h[16:1],{8}1/7,{24}7h[24:1],,8h[24:1],{48},,,{16}4,3,2,{8}1-5[8:1],8h[8:9],
{1}C/1z5V31-6V48b[4:13],
,E4,
E8,
{4}1/7h[4:1],1q5[4:1],,6v3[8:1],
{8},4q1[4:1],,,,7,{4}7,
{8}2h[16:1]/6h[16:1],3h[16:1],4h[16:1]/7h[16:1],8h[16:1],2h[16:1]/1h[16:1],2h[16:1],3h[16:1]/4h[16:1],4h[16:1],
{4}1h[8:1]/5h[8:1],{8}E2,{16}E6,E3,,E7,{8}E4,E8,C,
{1}2bh[1:4]/8V27-3-6-4<5V36-2-7-1b[2:7],
,,,{16}1xh[8:1],
{32},,,,B6,B5,{8}1x,{16}B2,B1,7xh[8:1],{32},,,,B3,B4,{8}7x,{16}B7,B8,
2xh[8:1],{32},,,,E7,E6,{8}2x,{16}E4,E3,8xh[8:1],{32},,,,E8,E7,{8}8x,{16}E2,E3,
7xh[8:1],{32},,,,E6,E5,{8}7x,{16}E1,E2,2xh[8:1],{32},,,,E8,E1,{8}2x,{16}E4,E5,
8xh[8:1],{32},,,,A6,A5,{8}8x,{16}A2,A3,{4}1x/5x,{8}3h[8:1]/7V58-4[4:1],8,
3b/7x,{16}2,2b,,1,{8}1b,{16}8,1b-5[8:1],,4,{12}5bh[8:1],{24},,6,7,
{8}8b,{16}6,5,{8}4,1b/7b,{16}1,6/2-5[8:1],,5,{8}2/6b,8b,
{32}7b,6,{16}5h[16:1],{32},,2b,3,{8}4h[16:1],{32}8b,7,{16}6h[16:1],{32},,1b,2,{8}3h[16:1],{32}8b,1,2,3,4b,5,6,7,
{8}8b/2x,{16}3/8,7,{8}3/6,4/5,8b/7b,{16}8/7,1b,{8}7h[8:1]/2V41-5[4:1],1b,
6b/2x,{16}7,7b,,8,{8}8b,{16}1,8b-4[8:1],,5,{12}4bh[8:1],{24},,3,2,
{8}1b,{16}3,4,{8}5,8b/2b,{16}8,3/7-4[8:1],,3,{8}7/3b,2b,
{32}1/5bxh[8:1],2,{16}3,{32},,1/5bh[8:1],8,{8}7,{32}4/8bxh[8:1],3,{16}2,{32},,4/8bh[8:1],5,{8}6,{32}1bx,2,3,4,{48}5bx,6,7,8,1,2,
{16}3b/4bh[16:3],,,8bh[16:9],,,{8}1bs5[4:1],{4}5,C,
{8}7-5[8:1],{16}8,1,{8}2/7-1[8:1],{16}1,2,{8}3/7-4[8:1],{16}2-8[8:1],3,{8}4/7,2,
{16}4,3,2,1,4/8,3/7,2/6,1/5,{8}4v5[8:1]/8-5[8:1],2/6,{4}4/8,
{8}3-1[8:1],{16}4,5,{8}3-7[8:1],{16}6,6,{8}3-8[8:1],{16}6v3[8:1],5,{8}3/4,6,
B2/E2/E3,7-3[8:1],8-2[8:1],7-5[8:1],8-4[8:1],7,{4}8,
{8}2-4[8:1],{16}1,8,{8}7/2-8[8:1],{16}8,7,{8}6/2-5[8:1],{16}7-1[8:1],6,{8}5/2,7,
{16}5,6,7,8,5/1,6/2,7/3,8/4,{8}5v4[8:1]/1-4[8:1],7/3,{4}5/1,
{8}6-8[8:1],{16}5,4,{8}6-2[8:1],{16}3,3,{8}6-1[8:1],{16}3v6[8:1],4,{8}6/5,3,
{16}8,1,2,3,4/8,5/1,6/2,7h[8:1]/3h[8:1],,,3/7h[8:1],4,5,6,3/7,8,
1bh[8:1],3,5,2bh[8:1],4,6,3bh[8:1],5,7,4bh[8:1],6,8,5bh[32:1],5h[32:1],8h[32:1],8h[32:1],
3bh[8:1],1,7,2bh[8:1],8,6,1bh[8:1],7,5,8bh[8:1],6,4,7h,5,2h,8,
4bh[8:1],2,8,3bh[8:1],1,7,2bh[8:1],8,6,1bh[8:1],7,5,8bh[32:1],8h[32:1],5h[32:1],4h[32:1],
6bh[8:1],4,2,7bh[8:1],5,3,8bh[8:1],6,4,1bh[8:1],7,5,2h[16:1],4,{8}7h[16:1],
{16}8bh[8:1],6,4,7bh[8:1],5,3,6bh[8:1],4,2,5bh[8:1],3,1,4bh[32:1],4h[32:1],1h[32:1],1h[32:1],
6bh[8:1],8,2,7bh[8:1],1,3,8bh[8:1],2,4,1bh[8:1],3,5,2h,4,7h,1,
5bh[8:1],7,1,6bh[8:1],8,2,7bh[8:1],1,3,8bh[8:1],2,4,1bh[32:1],1h[32:1],4h[32:1],5h[32:1],
{1}4z8-5[2:1]/6s2-5[2:1],
{4}3b/7b,{8}4/5,{24}6,5,6,{16}5,3,3,4,4-8[8:1],2,{8}1/8,
{4}4b/3b-5[4:1]*V57[2:1]*V57-1[4:3]*V57V13[1:1],{8}1,8,{4}7,5,
{8}3-5[4:1]*V57[2:1]*V57-1[4:3]*V57V13[1:1],,,7,{16}6,,,5,,,{8}4,
3-5[4:1]*V57[2:1]*V57-1[4:3]*V57V13[1:1],,,7,{2}7,
5h[8:5],{16}4,3,2,1,8/2,1,8,7,
{8}3/6<8[4:1]*<2[2:1]*<4[4:3]*<6[1:1],,,2,{4}2,4,
{8}6<8[4:1]*<2[2:1]*<4[4:3]*<6[1:1],2,,2,3,4,5,6,
6<8[4:1]*<2[2:1]*<4[4:3]*<6[1:1],,,2,{2}2,
2h[2:1],{16}6,7,8,1,8/2,1,2,3,
{4}4/7V53[2:1],{8}1,2,{2}3-7b[8:1]*V17[2:1],
7V53[2:1]*-3b[8:1],{4}3V17[2:1],{8}5,6,
{2}7-3b[8:1]*V53[2:1],{4}3V17[2:1],{8}5,6,
{4}7,{16}6,6,5,5,4,4,3,3,{4}2x/7x,
6/2V46[2:1],{8}8,7,{2}6V82[2:1]*-2b[8:1],
2V46[2:1]*-6b[8:1],{4}6V82[2:1],4,
{2}2V46[2:1]*-6b[8:1],{4}6,7V51b[4:1],
{8}1-5b[8:1],2,{4}3s7[4:1]*s7s3[2:1],{8},,,,8h[4:1],
,,2h[4:1]/6h[4:1],,,{4}5/4-6[8:1],
3/4>8[4:1],{8}7,6,5h[4:1],B3/B2,,B7/B6,
{4}3h[8:3],{8}4,4h[4:1],C,5,5V31-7[8:3],5/6,
{2}Ch[2:1],{16}6,7,8,1,2,3,{8}4/6,
{4}3x/5xh[4:1],{8}4,4V26[2:1],{4}4,{8}6,6-1[4:1],
,,,8,8/6-3[8:1]*-1[8:1],7,{4}6,
5/4xh[4:1],{8}3V17-5[8:3],3,,4,,2z6[4:1],
,7,{4}7,{16}8-4[8:1],7,6,5,{4}4/8,
1/5h[2:1],{8}1,2,{4}3h[1:1],{8}4,4,
,2,{4}2,5h[4:1],{32}6,7,8,1,2,3,4,5,
{4}6xh[8:5],{8}4,4h[4:1],,,3/5,4/2h[2:1],
,Ch[8:1],{16},,,,2,2,4,4,5,5,7,7,
{4}3h[1:1],{8}4,E4,,4,5,6,
{4}7h[4:1],{8}5,{16}4,6,{8}2,5,4,3,
{32}1/5x,6,7,8,1,2,3,4,5x/B1,6,7,8,1,2,3,4,5x/C,6,7,8,1,2,3,4,B5/5x-1b[2:1],6,7,8,1,2,3,4,
{4}5h[2:1],,,3b/7b,
{24}4,5,4,7,,,3,4,3,6,{96},,,,,,,,{32}2,3,4,5,{16}7x,{32}7,6,5,4,{16}1x,{32}1,2,3,4,
{16}8,8,1,7,{24}2,6-1[8:1],3,5,{12}4h[24:1],{8}6x/2xv5[8:1],3,2x/6x,7,
{24}6,5,6,1,,,5,4,5,8,{96},,,,,,,,{32}2,3,4,5,{16}1x,{32}1,2,3,4,{16}8x,{32}8,1,2,3,
{24}7,8,7,8,7,8,7,6,5,4,3,2,1/5,6,7,8,1/7,2/6,{8}3/5,1/7,
{24}5,4,5,2,,,6,5,6,3,{48},,,,7,6,5,4,,,{16}2x,{48}2,3,4,{16}5,8x,{48}8,7,6,5,,,{16}1,
1,8,2,{24}7,3-8[8:1],6,4,{12}5h[24:1],{8}3x/7xv4[8:1],6,7x/3x,2,
{24}3,4,3,8,,,4,5,4,1,{96},,,,,,,,{32}7,6,5,4,{16}8x,{32}8,7,6,5,{16}1x,{32}1,8,7,6,
{24}2,1,2,1,2,1,2,3,4,5,6,7,8/4,3,2,1,8/2,7/3,{8}6/4,8/2,
{24}7b,6,5,2,{48},{16}1,3b,6,5,7,{24}2b,3,4,7,{48},{16}8b,6,3,4b,2,
{24}8,7,6,5,4,3,2/7,6,5,4,3,2,{32}1/6,5,4,3,1,2,3,4,6,5,4,3,2,1,8,7,
{24}2b/6,3,4,7,{48},{16}8,6b,3,4,2,{24}7b,6,5,2,{48},{16}1b,3,6,5b,7,
{24}1,2,3,4,5,6,7/2,3,4,5,6,7,{32}8/3,4,5,6,8,7,6,5,3,4,5,6,7,8,1,2,
{8}3b/5b-2[8:1],5,A5/7b-4[8:1],7,A7/1b-6[8:1],1,3b,3,
{24}8b,7,6,4,{48},{16}4,{24}1b,2,3,6,{48},{16}6,{24}4b,3,2,8,7,6,3b,2,1,7,6,5,
3b,4,3,4,3,4,2b,5,2,5,2,5,1b,6,1,6,1,6,8b,7,8,7bx,{48},,,,{16}8bh[24:1],
7bh[48:1],8bh[24:1],7bh[48:1],8bh[24:1],6bh[48:1],8bh[24:1],5bh[48:1],8bh[24:1],4bh[48:1],8bh[24:1],3bh[48:1],{32}3b,4b,5b,6b,7b,8b,1b,2b,
{16}3x/8xv1[8:1],7,6,5,{8}8v6[8:1],7,{16}8v3[8:1],1,,8h[16:1],,,6,7,
8xv3[8:1],3,2,1,{8}8v6[8:1],7,{16}8-2[8:1],1,,8h[16:1],,,7,6,
5xv4[8:1],2,3,4,{8}5v8[8:1],6,{16}5-1[8:1],4,,5h[16:1],,,7,6,
5xv2[8:1],2,3,4,{8}5v8[8:1],6,{16}5,4h[8:1],,6h[16:1],{8}4,8/2,
{16}1xv8[8:1],2,3,4,{8}1v3[8:1],2,{16}1v6[8:1],8,,1h[16:1],,,3,2,
1xv6[8:1],6,7,8,{8}1v3[8:1],2,{16}1-7[8:1],8,,1h[16:1],,,2,3,
4xv5[8:1],7,6,5,{8}4v1[8:1],3,{16}4-8[8:1],5,,4h[16:1],,,2,3,
4xv7[8:1],7,6,5,{8}4v1[8:1],3,{16}4,5h[8:1],,3h[16:1],{8}5,1/7,
{32}1b/7h[8:1],2,{16}3,{32},,2b/7h[8:1],3,{8}4,{32}3b/7h[8:1],4,{16}5,{32},,4b/7h[8:1],5,{8}6,{32}7b,6,{16}5,{32}2b,3,{16}4,
{32}8b/2h[8:1],7,{16}6,{32},,7b/2h[8:1],6,{8}5,{32}6b/2h[8:1],5,{16}4,{32},,5b/2h[8:1],4,{8}3,{32}2b,3,{16}4,{32}7b,6,{16}5,
{32}1b/7h[8:1],2,{16}3,{32},,2b/7h[8:1],3,{8}4,{32}3b/7h[8:1],4,{16}5,{32},,4b/7h[8:1],5,{8}6,{32}7b,6,{16}5,{32}2b,3,{16}4,
{32}8b/2h[8:1],7,{16}6,{32},,7b/2h[8:1],6,{8}5,{32}6b/2h[8:1],5,{16}4,{32},,5b/2h[8:1],4,{8}3,{32}2b,3,{16}4,{32}7b,6,{16}5,
{32}1b/7h[8:1],2,{16}3,{32},,2b/8h[8:1],3,{8}4,{32}3b/7h[8:1],4,{16}5,{32},,4b/8h[8:1],5,{8}6,{32}7b,6,{16}5,{32}2b,3,{16}4,
{32}8b/2h[8:1],7,{16}6,{32},,7b/1h[8:1],6,{8}5,{32}6b/2h[8:1],5,{16}4,{32},,5b/1h[8:1],4,{8}3,{32}2b,3,{16}4,{32}7b,6,{16}5,
{24}3b,4b,3b,4b,{48},{16}2b,{24}8b,1b,8b,1b,{48},{16}7b,{24}5b,6b,5b,6b,{48},{16}4b,{24}1b,1b,1b,1b,1b,1b,
2b/8b,3b/7b,{12}4b/6b,{24}4b/6b,3b/7b,{12}2b/8b,{24}4b/8b,3b/7b,2b/6b,1b/5b,{384}8b/4b,A1/A7/A3/A5/B1/B3/B4/B5/B7/B8/Cf/E1/E4/E5/E7,
E
