&title=異星にいこうね
&artist=いよわ
&first=0.07
&des=理理我呗(;へ:)
&lv_5=13+
&inote_5=(192)
{2},,,,
{16}3x/5xb,,,,1,,,1,4-2[6:1],,,,5,,,,
7,,,,1,,,1,6-8[6:1],,,,4,,,,
3,,,,1,,,1,4-2[6:1],,,,5,,,,
7,,,,1,,,1,6-8[6:1],,,,1,,,,
{16}3,,,,1,,,1,4>1[6:1],,,,5,,,,
7,,,,1,,,1,6<1[6:1],,,,4,,,,
3,,,,1,,,1,4-8[6:1],,,,5,,,,
7,,,,1,,,1,Ch[6:1],,,,,,,,
{16}6x/4xb,,,,8,,,8,5-7[6:1],,,,4,,,,
2,,,,8,,,8,3-1[6:1],,,,5,,,,
6,,,,8,,,8,5-7[6:1],,,,4,,,,
2,,,,8,,,8,3-1[6:1],,,,5,,,,
{16}6,,,,8,,,8,5<8[6:1],,,,4,,,,
2,,,,8,,,8,3>8[6:1],,,,5,,,,
6,,,,8,,,8,5-1[6:1],,,,4,,,,
2,,,,8,,,8,2h[6:1],,,,,,,,
{16}5h[4:1],,,,3,,,3,6h[4:1],,,,4,,,4,
5h[4:1],,,,3,,,3,6-8[8:1],,,,5,,,,
4h[4:1],,,,6,,,6,3h[4:1],,,,5,,,5,
4h[4:1],,,,6,,,6,3-1[8:1],,,,4,,,,
5h[4:1],,,,3,,,3,6h[4:1],,,,4,,,4,
5h[4:1],,,,3,,,3,6-8[8:1],,,,5,,,,
4,,,5,3,,,,5,,,4,6qq8[4:3],,,,
,,,,,,,,,,,,,,,,
{16}4xp7[4:1],,,,7,,,5,4<1[4:1],,,,2,,,,
4p7[4:1],,,,7,,,5,4<1[4:1],,,,2,,,,
4-7[6:1],,,,2,,,,5-2[6:1],,,,7,,,5,
4-8[6:1],,,,2,,,,5-1[6:1],,,,7,,,,
7x>2[6:1],,,,2xv7[6:1],,,,7x>2[6:1],,,,3x,,,,
4x-8[6:1],,,,6,,,,4x-7[6:1],,,,2,,,,
5x-2[6:1],,,,7,,,,5-1[6:1],,,,3,,,,
4-8[6:1],,,,6,,,,{12}5,2,4,3,6,4,
{16}5x<2[4:1],,,,2,,,4,5p8[4:1],,,,7,,,,
5<2[4:1],,,,2,,,4,5p8[4:1],,,,7,,,,
5-2[6:1],,,,7,,,,4-7[6:1],,,,2,,,4,
5-1[6:1],,,,7,,,,4-8[6:1],,,,2,,,,
2x<7[6:1],,,,7xv2[6:1],,,,2x<7[6:1],,,,6x,,,,
5x-1[6:1],,,,3,,,,5x-2[6:1],,,,7,,,,
4x-7[6:1],,,,2,,,,4-8[6:1],,,,6,,,,
5qq7[8:5]*q2[4:1],,,,,,,,,,,,,,,,
{16}3xh[4:1]/8xb,,,,1,,,1,4-2[8:1],,,,5,,,,
3h[4:1]/4,,,,8,,,8,3-1[8:1],,,,4,,,,
3h[4:1]/5,,,,1,,,1,4-2[8:1],,,,5,,,,
3h[4:1]/4,,,,8,,,8,3-1[8:1],,,,4,,,,
{16}3h[4:1]/7,,,,1,,,1,4-1[6:1],,,,5,,,,
2h[4:1]/4,,,,8,,,8,3-8[6:1],,,,4,,,,
3h[4:1]/5,,,,1,,,1,4-1[6:1],,,,5,,,,
2h[4:1]/4,,,,8,,,8,
{16}1xh[8:3]/Ch[6:1],,,,,,,,,,7x,,
{16}6xh[4:1]/1xb,,,,8,,,8,5-7[8:1],,,,4,,,,
6h[4:1]/5,,,,1,,,1,6-8[8:1],,,,5,,,,
6h[4:1]/4,,,,8,,,8,5-7[8:1],,,,4,,,,
6h[4:1]/5,,,,1,,,1,6-8[8:1],,,,5,,,,
{16}6h[4:1]/2,,,,8,,,8,5-8[6:1],,,,4,,,,
7h[4:1]/5,,,,1,,,1,6-1[6:1],,,,5,,,,
6h[4:1]/4,,,,8,,,8,5-8[6:1],,,,4,,,,
7h[4:1]/5,,,,1,,,1,6-2[6:1],,,,,,,,
{1}4>4>8<8[4:14],,,,
{4}6h[2:1],B5,4h[2:1],B3,6h[2:1],B5,4h[2:1],B2,
6h[2:1],E7,4h[2:1],E4,A6,E5,A3,8x,
{16}5xq2[4:1],,,,3,,,,5>8[4:1],,,,7,,,,
5q2[4:1],,,,2,,,4,5>8[4:1],,,7,6,,,,
5-2[6:1],,,,7,,,,4-7[6:1],,,,2,,,4,
5-1[6:1],,,,7,,,,4-8[6:1],,,,2,,,,
2x<7[6:1],,,,7xv2[6:1],,,,2x<7[6:1],,,,6x,,,,
5x-1[6:1],,,,3,,,,5x-2[6:1],,,,7,,,,
4x-7[6:1],,,,2,,,,4-8[6:1],,,,6,,,,
5-1[6:1],,,,3,,,,{12}4,3,2,8,7,6,
{16}4x>7[4:1],,,,,,5,,4q1[4:1],,,2,3,,,,
4>7[4:1],,,,7,,,5,4q1[4:1],,,2,3,,,,
4-7[6:1],,,,2,,,,5-2[6:1],,,,7,,,5,
4-8[6:1],,,,2,,,,5-1[6:1],,,,7,,,,
6x-8[8:1],,,,5xp1[6:1],,,,4xq8[6:1],,,,3x,,,,
4x-8[6:1],,,4,6,,,,4x-7[6:1],,,4,2,,,,
5x-2[6:1],,,,7,,,,5-1[6:1],,,,3,,,,
4>5-3z7-1[8:13],,,,,,,,,,,,,,,,,,,,,,,,,,,,,,,,
{12}6,7,8,5x/1x,4,3,5,6,7,8x/4x,3,2,4,5,6,7x/3x,2,1,4h[4:1],,,1x,,,
3,2,1,4x/8x,5,6,4,3,2h,1xh/5x,6h,7h,5,4h,3h,2x/6x,7h,8h,5h[4:1],,,8x,,,
{64}6h,5h,,,,,,,,,,,,,,,4h,5h,,,,,,,,,,,,,,,4h,3h[4:1],,,,,,,,,,,,,,,
{12}4x,5,6,2,,2,4x,,4,5h[4:1],,,7x,,,6h,5,6,2x,,5,3h,4,3,7x,,4,
6h,5,6,3xh,4,3,7h[4:1],,,5x,5x,5x,5xh[4:1]`6h,,,8,,,
{64}3h[24:1],,4h[4:1],,,,,,,,,,,,,,
{12}1x,,3,7,,7,5xh[48:1],,5,4h[4:1],,,2x,,,
{48}2h,4h,,,,,,,,,,,6x/5x,,,,,,,,8,,,,
5h,7h,,,,,,,,,,,4x/3x,,,,,,,,1,,,,
2h[64:1],4h,,,,,,,,,,,1x/8x,,,,,,,,,,,,
{12}7h,5,6,3x,4x,2x,8,,8h[12:1],2x,,2h[12:1],6,,6h[12:1],
4x,,4h[12:1],7,,7h[12:1],3x,,,5-8[6:1],,,1x,,,
2,,2h[12:1],4x,,4h[12:1],5,,5h[12:1],7x,,,
{32}6xh,5xh,,,,,,,5xh,4xh,,,,,,,3xh,4xh,,,,,,,4xh,5xh,,,,,,,
{16}6h[4:1],,,,4,,,4,5h[4:1],,,,3,,,3,
6h[4:1],,,,4,,,4,5-8>1[4:1],,,,3,,,,
3h[4:1],,,,5,,,5,4h[4:1],,,,6,,,6,
3h[4:1],,,,5,,,5,4-1<8[4:1],,,,6,,,,
6h[4:1],,,,4,,,4,5h[4:1],,,,3,,,3,
6h[4:1],,,,4,,,4,5-8>1[4:1],,,,3,,,,
4,,,4,6,,,,5,,,5,3,,,,Ch[2:1],,,,,,,,,,,,,,,,,,,,,,,,,,,,1x,,,,
{16}4xbp7[4:1],,,,7,,,5,4<1[4:1],,,,2,,,,
4p7[4:1],,,,7,,,5,4<1[4:1],,,2,3,,,,
4-7[6:1],,,,2,,,,5-2[6:1],,,,7,,,5,
4-8[6:1],,,,2,,,,5-1[6:1],,,,7,,,,
7x>2[6:1],,,,2xv7[6:1],,,,7x>2[6:1],,,,3x,,,,
4x-8[6:1],,,,6,,,,4x-7[6:1],,,,2,,,,
5x-2[6:1],,,,7,,,,5-1[6:1],,,,3,,,,
4-8[6:1],,,,6,,,,{12}5,6,7,1,2,3,
{16}4<2[4:6]/D2h[6:1],,,,,,,,D4h[6:1],,,,,,,,
D6h[6:1],,,,,,,,D8h[6:1],,,,,,,,
3<6<2[4:6]/D1h[6:1],,,,,,,,D3h[6:1],,,,,,,,
D5h[6:1],,,,,,,,D7h[6:1],,,,,,,,
5>3>1<7[4:6]/D8h[6:1],,,,,,,,D6h[6:1],,,,,,,,
D4h[6:1],,,,,,,,D2h[6:1],,,,,,,,
6>5>3>2<8<7[4:5]/D1h[6:1],,,,,,,,D7h[6:1],,,,,,,,
E1,,,,C,,,,E5,,,,,,,,
{12}5b`6xh[4:1],,,3h[6:1],,4,2,1,8,7,,,4h`3h[4:1],,,6h[6:1],,5,7,8,1,2,,,
5h`6xh[4:1],,,3h[6:1],,4,2,1,8,7,,,4h`3h[4:1],,,6h[6:1],,5,7,8,1,2,,,
5h`6xh[4:1],,,4h[6:1],,5,3,2,8,7,,,4h`3h[4:1],,,5h[6:1],,4,6,7,1,2,,,
5h`7xh[4:1],,,3h[6:1],,4,2,1,7,6,,,4h`2h[4:1],,,6h[6:1],,5,7,8,2,3,,,
C,,,
