&title=Kissing Lucifer
&artist=ETIA.
&first=0
&des=Slicrrect&Mr.S
&lv_5=14
&inote_5=(169.95)
{4},,,1<1[1:4],8h[1:2],
{1},,,,
{8}7,5,,3,4,,6h[8:3],,1,1,,8>8[8:15],7,6h[8:11],,
{1},
{4},,,
{8},2h[8:3]/5,,7,6,,2,35,,4/7h[8:3],,2,3,,5,64,7h[8:1]/3h[8:5],,,,,7,,,6h[8:5],,2,2,,4h[2:1],6,,,,5,5h[2:1],3,,3,2,,2h[8:3],,5,6,,1,28,3p5[8:13]/7p1[8:13],
{1},,
{16}3b/7b,,4,,4,5,,5h[16:3],,,2,,2h[8:3],4,,4,,,7,,7h[8:3],5,,5,,,1,,1h[8:3],6,,6,,,8,,8h[8:3],3,,3,,,2,,2h[8:3],5,,5,,,7,,7h[16:5],4,,4,,,2,4,3,5,4,6,5,7,4,,4,6,,36,,2,4,,4,2,,25,,7,4,,4,7,,75
,,2,4,,4,1,,35,,7,5,,5,8,,46,,2,7,,7,4,,73,,8,3,,3,6,,37,
{2},
{4}1b/5b,2,3,4,58,7,6,5,48,1,2,3,51,8-4[8:1],4-8[8:1],,
{8}17,1,27,2,37,3,47,4,53,5,63,6,73,7,83,8,
{16}2,3,4,5,6,7,8,1,
{32}27,6,5,4,3,2,1,8,7,6,5,4,3,2,1,8,
{8}7b,,3-5[8:1],7-1[8:1],3-7[8:1],7,3,,
{4}1b/6b,
{8}3,7,
{4}1>2[24:1]*>3[24:2]*>4[24:3]*>6[24:5]*>7[24:6]*>8[24:7]*>1[24:8],1b/5h[2:1],,
{16}2h[16:3],,,8,,,16,,3,4,2,4,1b-5[8:1],,,7,,6,,,8-4[8:1]/3,,,2,,3,,,1-5[8:1]/6,,,7,,6,,,8b,,8b-6[12:1],,,1b-5[12:1]/8b,,,1b,,,,6,5,7,,8<7[24:1]*<6[24:2]*<5[24:3]*<3[24:5]*<2[24:6]*<1[24:7]*<8[24:8]/3,,,,
{2}8b/4h[2:1],
{16}7h[16:3],,,1,,,83,,6,5,7,5,8-4[8:1],,,2,,3,,,1q5[8:1]/6,,,7,,6,,,3b/7b,,,,2,7,,,3,6,4,5,3,6,4,5,
{32}3,4,5,6,7,8,1,2,
{24}3,4,5,6,7,8,
{16}1,2,3,4,
{12}5,6,7,
{8}8,1,2w6[8:1],,
{2},
{12}1-5[9:1]/7,6,,15,,7,8-4[9:1]/2,3,,84,,2,1>4[9:1]/7,6,,15,,7h,5h,1h,3h,6h,2h,4h,8w4[8:1],,,
{4}8,1>2[24:1]*>3[24:2]*>4[24:3]*>6[24:5]*>7[24:6]*>8[24:7]*>1[24:8],1b/5h[2:1],,
{16}2,,,47,,,16,,3,4,2,4,
{12}1q5[8:1],6,,15,,7,8p4[8:1]/2,3,,84,,,2h,4h,6h,4h,2h,8h,4pp4[4:3]*qq4[4:3],,,
{4}4,,,,
{8}1bs5[2:1],,,,7-3[8:1],,7,4>8[8:3],,,8pp3[8:5],,,,4-7[8:1],,4,,,,2-6[8:1],,2,7<3[8:3],,,3pp7[8:5],,,,8-3[8:1],,8,,,,7-3[8:1],,7,1-4[8:1]*-6[8:1],,,,,3b<6[8:1],,3b,7b>2[8:1],,,4b-8[8:1],,4,7-5[8:1],7-3[8:1],,,,5h[8:3],,3,4,,6,5,,3h[8:3],,7,7,,2,3,4h[2:1],,,6,5,,3,4,,6h[8:3],,2,2,,8,7,6,51,,2,3,48,7,62,,48,,51,6,73,2,15,6,73,,48,3,26,7,84,,2/6h[8:3],,4,4,,8,7,6,
{4}53,74,26,75,34,82,16,78,1h[8:1]/5,2h[8:1]/6,3h[8:1]/7,4h[8:1]/8,7h[8:1]/3,6h[8:1]/2,5-1[8:1]/1,,
{8}82,8,72,7,62,6,52,5,46,4,36,3,26,2,16,1,
{16}7,6,5,4,3,2,1,8,
{32}72,3,4,5,6,7,8,1,2,3,4,5,6,7,8,1,
{8}2b,,6h[8:1],,
{16}4,6,4,,3-8[8:1]/7-4[8:1],,26,,
{1}3bp2[1:1]/7bp6[1:1],
{4},
{8},,,4h[8:1],5h[4:1],,1V35[4:1],,1/5-1[8:1],6,7V53[4:1],,7/3-7[8:1],2,1-5[8:1],,18,7,6b-2[8:1],,4b-8[8:1]/6b,,4b/5b,,7,6,5-8[8:1],4,3,2-5[8:1],1,8,7-3[8:1],3-7[8:1],7/1,,
{16}1,2,3,,
{8}8V64[4:1],,8/4-8[8:1],3,2V46[4:1],,2/6-2[8:1],7,8,,
{16}7,2,,,6,3,5,4,6-2[8:1],3,5,4,
{4}6bpp2[1:1]*qq5[16:9],,,,,,
{8},1b,1b,,
{16}7-4[8:1],7,4-6[10:1],,7,,,,2-5[8:1],2,5-3[10:1],,2,,,,7-4[8:1],7,4-8[8:1],,
{4}7,2b-6[8:1],8b-4[8:1]/2b,8b,
{16}2,4,2,6,2,4,2,6,2-6[8:1],8,2,6,2b,,,,7,5,7,3,7-3[8:1],5,7,3,7b,,,,2-8[8:1],2,8-4[8:1],,2,,,,7-5[8:1],7,5-1[8:1],,7,,,,2,3,4,5,
{24}6,7,8,1,2,3,
{32}4,5,6,7,8,1,2,3,4,5,6,7,8,1,2,3,
{4}4b/7b,
{16},
{32}8b/2b,3,4,,,,1b/7b,6,5,,,,,,,,7b/3b,4,5,,,,2b/6b,5,4,,,,,,,,8b/2b,3,4,,,,8b-4[12:1]/3b,4,5,,,,,,1/8b,,,,,,,,1b/7b,6,5,,,,,,,,8b/2b,3,4,,,,8b/3b,4,5,,,,,,,,1b/6b,5,4,,,,
{8}2b,2b,
{16}8V64[4:1]*V24[4:1],1,8,,
{4}8b,,
{8}6-4[8:1],4-7[9:1],
{12}63,2,,
{8}3-8[8:1],8-4[8:1],
{12}37,6,,
{8}7-5[8:1],5-1[8:1],
{12}72,3,,
{8}4-2[8:1],2-5[8:1],
{16}4,,,8,8,,
{32}7,6,5,,
{12}1,1,
{24}7,6,5,4,3,2,1,8,
{32}7v4[8:1]/3v8[8:1],4,5,6,7,8,1,2,
{4}3b/7b,
{16}1,5,,26,,,3,5,4,6,3,5,
{4}4-1[8:1]/7-4[8:1],
{1}4bqq6[1:4]/7bpp5[1:4],,,,
{4},,,
{8}1h[4:1],3,8h[4:1],6,1>3[12:1]*>4[24:3]*>5[6:1]*>6[24:5]*>7[4:1],
E
