&title=月まで1秒ちょっと
&artist=森羅万象
&first=0
&des=MAS:Holinality , Re:MAS:Glowen
&clock_count=4
&lv_5=13
&lv_6=13+
&inote_5=(134)
{72}
,
{1}
,
{16}
6x/4xh[8:5],,,,E1,,,B2,
,,E6,,,,3/5,,
3/5h[8:5],,,,E1,,,B7,
,,E4,,,,6/4,,
6/4h[8:5],,,,7,,,1,
,,6,,,,3/5,,
3/5h[8:5],,,,2,,,8,
,,3,,,,6/4,,
{16}
4h[8:1],,6h[8:2],,,,2pp5[8:3],,
,,2/6,,7,,8,,
,,7,,6/4,,2,,
3/5,,7v4[8:1],,1,,7,,
,,2,,3/5,,6,,
1/7,,2h[8:1],,7,,3,5,
4-2[8:1],,4,,5-7[8:1],,5,,
5/1-4[8:1]*-6[8:1],,,,1,,,,
5xh[8:1],,3h[8:2],,,,7qq4[8:3],,
,,7/3,,2,,1,,
,,2,,3/5,,7,,
6/4,,2>5[8:1],,8,,2,,
,,7,,6/4,,3,,
8/2,,7h[8:1],,2,,6,4,
5-7[8:1],,2-4[8:1],,5,,2,,
8-3b[8:1]*-5b[8:1],,,,8b,,,,
{16}
,,4h[8:1],,6h[8:1],,2,4,
,5,7v4[8:1],,2,,7,,
,,3,,3/5,,7,5,
,4,2v5[8:1],,7,,2,,
,,6,,6/4,,2,5,
,4,7,,2,,8,,
3h[16:3],,,1h[16:3],,,8h[16:3],,
,6h[16:3],,,2,,3x/6x,,
,,5h[8:1],,3,,6,4,
,8,2,7,3h[8:1],,6,,
,,4h[8:1],,6,,3,5,
,1,7,2,6h[8:1],,3,,
,,5h[8:1],,3,,6,6h[8:1],
,2,2h[8:1],,7,,7/2,,
45,,,13,,,68,,
,,2,,3/5V71[8:2],,4,,
{16}
1bV75[8:2]/5b,,,,3h[4:1],,,,
,,1-3-5-2[8:4],,,,7/1,,
,,B8,,,,E7,,
,,1/6,,1V35[8:2],,7,,
5V31[8:2]/1,,,,7h[4:1],,,,
,,7,,6,,5/3,,
2h[16:3],,,5h[16:3],,,4h[16:4],,
,,7,,6V82[4:1],,3,,
2<6[4:1]/6,,,,4h[4:1],,,,
,,3-8-2-5[8:4],,,,3/8,,
,,B7,,,,A6f,,
,,,,,,,,
,,74,,25,,1,8,
,27,,5,4,,36,,
3h[16:3],,,5h[16:3],,,1-5[8:1],,
7v4[8:1],,1>8b[8:3],,7,,1b,,
,,,,,,6xh[8:1],,
4xh[8:1],,8xh[8:1],,2b>5[8:1],,,,
{16}
2b/7b,,7h[4:1],,,,5V31[8:2],,
,,5/8,,7,7,,,
,,6-2[8:1]/2,,7,,6/4-1[8:1],,
3,,4/7-3[8:1]*-4[8:1],,6,,7,,
,,1-5[8:1],,2,,1/7v4[8:1],,
6,,7/2,,3,,3,5,
4-8[8:1],,7-5[8:1],,4,,7,,
1-4b[8:1]*-6b[8:1],,,,1b,,,,
3x/7x,,2h[4:1],,,,4V68[8:2],,
,,4/1,,3,3,,,
,,3-7[8:1]/7,,2,,3/5-8[8:1],,
6,,5/2-6[8:1]*-5[8:1],,3,,2,,
,,8>2[8:1],,7,,6,,
5<7[8:1],,4,,3,,2,8,
1-3[8:1],,7,,1-5[8:1],,6,,
1w5b[8:1],,,,1b,,,,
{16}
3x,,6xh[8:2],,,,3h[8:2],,
,,8h[8:1],,4h[8:1],,6h[8:1],,
,,2,,3/5,,7,,
6/4,,2>5[8:1],,8,,2,,
,,7,,6/4,,3,,
8/2,,7h[8:1],,2,,6,4,
5,,47,,3,,25,,
7-4[8:1]/4-1[8:1],,,,74,,,,
2xh[8:1],,5<8[8:1],,,,5/2pp5[8:3],,
,,2/6,,7,,8,,
,,7,,6/4,,2,,
3/5,,7<4[8:1],,1,,7,,
,,2,,3/5,,6,,
1/7,,2h[8:1],,7,,3,5,
4h[8:1],,6h[8:1],,3h[8:1],,5,,
2>6b[8:1]/6<2b[8:1],,,,2bp8[8:4]/6b,,,,
{16}
2x,,,,,,4xh[8:4],,
,,,,,,6xh[8:4],,
,,,,,,3xh[8:5],,
,,,,,,,,
E8/B8,,E4/B4,,E6/B6,,E2/B2,,
,,E7,,E4,,A1,,
,,E3,,E6,,A8,,
,,E2/E3,,E7/E8,,,,
3h[8:1],,5h[8:2],,,,4h[8:4],,
,,7,,1,,6,,
,,2,,3,,4,,
6,,5,,7,,4,,
E7/B7,,E3/B3,,E5/B5,,E1/B1,,
,,E7,,E4,,A1,,
,,A8,,A3,A4,A5,,
,,B7/E7,,B2/E3,,,,
6h[8:1],,4h[8:2],,,,5h[8:4],,
,,2,,8,,3,,
,,7,,6,,5,,
3,,4,,2,,5,,
E8/B8,,E4/B4,,E6/B6,,E2/B2,,
,,6h[8:1],,4h[8:1],,1,,
,,3h[8:1],,5h[8:1],,8,,
,,E4/E3,,E7/E6,,,,
4,,4/6,,5,,53,,
4,,4/6,,5,,53,,
2,,35,,7,,46,,
1,,35,,8,,46,,
3,4,2,5,1,6,8,7,
1,8,2,7,3,6,4b,,
,,,,,,B6,,
B5,,B4,,B3,,,,
4h[8:8],,,,,,5h[8:5],,
,,,,,,,,
,,,,,,2b-5[8:1],,
8b-4[8:1],,2b,,8b>3b[8:1],,,,
{16}
8bx/6bx,,6xh[8:2],,,,2-5-3-8[8:3],,
,,25,,7,7h[16:3],,,
,,7-3[8:1],,6/4,,2>5[8:1]/7,,
1,,6-1[8:1]*-2[8:1]/2,,7,,6,,
,,4>1[8:1],,3,,4/7-3[8:1],,
6,,2v5[8:1]/7,,1,,2,8,
8-6[8:1],,3,,8-4[8:1],,2,,
8>3[8:1]/4<7[8:1],,,,8/4,,,,
8,,3h[8:2],,,,7-4-6-1[8:3],,
,,74,,2,2h[16:3],,,
,,2-6[8:1],,3/5,,7-4[8:1]/2,,
8,,3-8[8:1]*-7[8:1]/7,,2,,3,,
,,5<8[8:1],,6,,5/2-6[8:1],,
3,,7v4[8:1]/2,,8,,7,1,
1-3[8:1],,6,,1-5[8:1],,7,,
1-7[8:1]/5-3[8:1],,,,1/5,,,,
2,,6h[4:1],,,,5-3-1[8:2],,
,,5/7,,6,6,,,
,,1-5[8:1],,7v4[8:1],,1-3[8:1],,
7-5[8:1],,1-6[8:1],,7,,1,,
,,8x<6[8:1],,4>2[8:1],,8-4[8:1],,
4,,8,,3,,2,5,
1-3[8:1],,6,,1-5[8:1],,7,,
1<6[8:1]/5>2[8:1],,,,1/5,,,,
7,,3h[4:1],,,,4-6-8[8:2],,
,,4/2,,3,3,,,
,,8-4[8:1],,2v5[8:1],,8<6[8:1],,
2>4[8:1],,8-4[8:1],,2,,8,,
,,2x-4[8:1],,1,,8,,
7-1[8:1],,6,,5,,4,4,
8x-6[8:1],,3,,8-4[8:1],,2,,
8b-2[8:1]/4b-6[8:1],,,,8b/4b,,,,
{16}7x,,4xh[8:2],,,,6h[8:2],,
,,1h[8:1],,5h[8:1],,3h[8:1],,
,,7,,6/4,,2,,
3/5,,7<4[8:1],,1,,7,,
,,2,,3/5,,6,,
1/7,,2h[8:1],,7,,3,5,
4,,52,,6,,74,,
2>5[8:1]/5<8[8:1],,,,25,,,,
7xh[8:1],,4>1[8:1],,,,4/7qq4[8:3],,
,,7/3,,2,,1,,
,,2,,3/5,,7,,
6/4,,2>5[8:1],,8,,2,,
,,7,,6/4,,3,,
8/2,,7h[8:1],,2,,6,4,
5h[8:1],,3h[8:1],,6h[8:1],,4,,
7<3b[8:1]/3>7b[8:1],,,,7bq1>1>8b[8:31]/3b,,,,
7bx,,,,,,,,
,,,,,,,,
,,,,,,,,
,,,,,,,,
,,,,,,,,
,,,,,,,,
,,,,,,,,
,,,,,,,,
,,,,,,,,
,,,,,,,,
,,,,,,,,
,,,,,,,,
,,,,,,,,
,,,,,,,,
E
&inote_6=(134)
{4},,,,
{96},
{16}
5h[8:7],,,,B5,,,C,,,B1,,,,,,
3h[8:7],,,,B3,,,C,,,B7,,,,,,
8h[8:7],,,,B8,,,C,,,B4,,,,,,
2h[8:7],,,,B2,,,C,,,B6,,,,,,
1/7,,1-5[8:1]/7,,,,1x/7-3[8:1],,,,7x/2<3[8:4],,,,6h[8:4]/2x,,
,,,,,,,,2x/7x-3[8:1],,,,37,,,,
2/4,,2-6[8:1]/4,,,,2x/4-8[8:1],,,,4x/1>8[8:4],,,,6h[8:4]/1x,,
,,,,,,,,7x/1xq5[8:1]*>4[8:1],,,,1,,,,
{8}7x,7x,3x,3x,5x,5x,1x,1x,6,6,8,8,2,2,4,4,
{16}6x,5x,6,5,6,5,6,5,7x,4x,7,4,7,4,7,4,
{32}E8,E1,E2,E3,E4,E5,E6,E7,8x,1x,2x,3x,4x,5x,6x,7x,
{4}
8x-4[8:1]/4x-1[8:1],4x/8x,
5-1[8:1],4,3-5[8:1],7,
6-1[8:1],3,2-4[8:1],8,
{8}
6<1[8:1],5,4,,3>8[8:1],4,5,,
{16}6h[16:3],,,7h[16:3],,,8h[16:3],,,1h[16:3],,,7,,3,,
{4}
5<8[8:1],C,2>5[8:1],C,
7-4[8:1],B3/B2,1-4[8:1],B5/B6,
{8}7<4[8:1],8,1/7,,2>5[8:1],1,8/2,,
{16}6h[16:3],,,7h[16:3],,,8h[8:1],,1>4[8:1],,,,5-1[8:1],,,,
{8}
5/7b-4[8:1],,7/2b,,3,1,25,7,
4-8[8:1]/6,,2-5[8:1]/4x,,7/2x,,64,8,
3-8[8:1]/7-4[8:1],,3/7,,6-1[8:1]/2-5[8:1],,6/2,,
{16}4/8,,,7,,,2,,5<8[8:1],,,,1-5[8:1]/5,,,,
{8}
3b-8[8:1]/1,4,6b-3[8:1]/3,7,6/1-4[8:1],,1/5,,
8-4[8:1]/2x,1,6-1[8:1]/8x,5,3-6[8:1]/6x,2,3x/8,7,
{16}5x,6x,5,6,5,6,5,6,4x,7x,4,7,4,7,4,7,
{32}E3,E2,E1,E8,E7,E6,E5,E4,3x,2x,1x,8x,7x,6x,5x,4x,
{8}3xV52[8:2]/7xV16[8:2],,,,,,
,Chf[8:3],,,,,
{16}
2h[8:1],,4,,5h[8:1],,3,,4h[8:1],,7h[8:1],,5p1[8:1],6,,,
,,8,,26,,4,,57,,2,,35,,8,,
7-1[12:1],,1,,7-3[8:1],,2-5[8:1],,7,,2,,6,,4x-2[12:1],4x,
8x-4[8:1],,4,,8,,1x-5[8:1],,5x-7[12:1]*-3[12:1],,,,,,,,
8h[8:1],,1,,2h[8:1],,7,,6h[8:1],,3h[8:1],,5q1[8:1],4,,,
,,2,,48,,6,,1,,5,,3/6,,8,,
2-8[12:1],,7-5[12:1],,2-5[8:1],,7-3[8:1],,2,,7,,4x,,5x,4x,
3xp6[12:2],,,,3/6<2[12:2],,,,4xw8[12:1],,,,{32}B4,Cf,{16}B8,,,
2,,5,,4b/6b,,1,,38,,6,,4b/2b,,7,,
1h[8:1],,4,,8h[8:1],,5,,2h[8:1],,3,,7h[8:1],,6,,
4-7[8:1],,5,,1/4,,3,,8-3[8:1],,2,,8/5,,7,,
4-8[8:1],,6,,1/4,,3,,5-1[8:1]/7-4[8:1],,,,5/7,,,,
2,,5,,6b/4b,,1,,8,,4,,3b/5b,,7,,
1h[8:1],,8,,6h[8:1],,7,,2h[8:1],,3,,5h[8:1],,4,,
2-5[8:1],,7,,1/2,,8,,6-1[8:1],,4,,6/2,,3,,
8-4[8:1],,6,,8/7,,5,,{32}3,2,1,8,7,6,5,4,{16}3/7s3[8:12],,,,
1bp5[8:10],,,,,,,,,,,,,,,,,,,,,,,,,,,,,,,,
E2,,E3,,E4,,E5,,,,E7,,E8,,E1,,,,E3,,E4,,E5,,,,E7,,E6,,,,
1>8[8:27],,,,,,,,,,,,,,,,,,7,,5,,6,,4,,5,,3,,,,
B1,,B2,,B3,,B4,,,,B7,,B6,,B5,,,,B1,,B2,B3,B4,,,,B5,,C,,,,
6h[8:2],,,,4h[8:2],,5,,6h[8:2],,5,,4h[8:2],,,,
5h[8:2],,,,3h[8:2],,4,,5h[8:2],,4,,3h[8:2],,,,
8,,7,,6,,5h[8:2],,,,4,,3,,2h[8:2],,,,1,,8,,7h[8:2],,,,3,,4h[8:1],,,,
5,,6,,7x/C,,8,,1,,2,,3x/C,,4,,5,,7,,1x/C,,3,,6,,8x/C,,2,,4,,
6,5,7,4,5,5,3,4,2,5,4,4,6,3,8w4[8:3],,,,,,,,,,,,,,1pp5[16:12],,,,
7h[16:4],,,,,,6h[16:6],,,,,,,,,,
,,,,,,Chf[8:3],,,,,,,,,,
2h[8:1]/8,,4,,6h[8:1]/3,,5,,8/4h[8:1],,6,,3/5h[8:1],,1,,
7-4[8:1],,3-8[8:1]/6b,,7/2b,,3,,7v4[8:1],,3v8[8:1]/5b,,7/1b,,3,,
6-1[8:1],,2,,3/6,,5,,8-4[8:1],,4,,8/3,,1,,
2-5[8:1],,6-1[8:1],,2,,6,,4v2[8:1]*-7[8:1],,,,4,,,,
8h[8:1]/1,,5,,2h[8:1]/6,,4,,7h[8:1]/3,,5,,4h[8:1]/6,,8,,
2v4[8:1],,6v8[8:1]/3b,,2/7b,,6,,2-5[8:1],,6-1[8:1]/4b,,2/8b,,6,,
4<7[8:1],,3,,24,,1,,8>3[8:1],,7,,86,,5,,
4-8[8:1],,3,,2-5[8:1]/4,,1,,7-4[8:1]*v5[8:1]/2,,,,7,,,,
2b,,6,5,6b,,3,4,3b,,8,1,7b,2,6,3,
5x,,4,6,2x,,5,3,7x,,4,6,3x,7,2,8,
1b,,7,5,6b,,2,4,3b,,6,5,7b,4,5,2,
8-3[8:1],,71,,8-4[8:1]/6,,,,2-5[8:1]/8,,,,2/6,,,,
7b,,3,4,2b,8,5,6,1b,,7,8,6b,4,1,2,
5-2[8:1],,6,,5/7-3[8:1],,8,,7/1-4[8:1],,2,,1/5,,,,
6,5,6,5,7h[16:1],,4/7,,3,4,3,4,2h[16:1],,5,5,
{32}3,2,1,8,7,6,5,4,3/8,1,2,3,4,5,6,7,
1b-5[8:1]/8-4[8:1],,,,,,,,18,,,,,,,,
{16}6,,2,,7/4,,5,,3,,8,,2/6,,4,,
5h[8:1]/3,,8,,7h[8:1]/2,,5,,4h[8:1]/6,,1,,2h[8:1]/7,,4,,
3/5-2[8:1],,6,,5/7,,8,,1-6[8:1]/7,,2,,1/3,,4,,
5h[8:1],,1,,3h[8:1],,8,,1-5[8:1]/7-3[8:1],,,,1/7,,,,
2>5[8:1]/6,,1,,2/8,,6,,7<4[8:1]/3,,8,,7/1,,3,,
2h[8:1]/6,,1,,3h[8:1]/7,,4,,6h[8:1]/5,,8,,7h[8:1]/2,,6,,
3-7[8:1]/5,,4/2,,3/7,,5,,6-1[8:1]/8,,5/7,,6/1,,3h[8:1],,
2,,5h[8:1],,4,,5/6,,7-3[8:1]/8-4[8:1],,,,7/8,,,,
{1}5bw1[16.75#4:1]/2b>8[8:12],,,,
E
