&title=IMPACT
&artist=USAO
&first=0.02
&des=ygh/kkmo
&lv_5=14+
&des_5=ygh/kkmo
&inote_5=
(210){4},,,8h[4:3]/4<3[2:1],
{8},,,,,,4,3,
5,6,{4}7-3[8:1],7,{16}4-2[8:1],5,,5,
{4}4,{8}4x/3x,2,5x/4x,2,4x/5x,2,
6x/5x,1,5x/6x,1,6x/5x,4,{4}3-6[8:1],
{8}3/7h[2:1],,,8,{4}8z4[8:1],8p1[4:1],
{8}8,,,5-8[8:1],,5/4,3,2-4[8:1],
,2h[8:3],,,6-1[8:1],6,5-2[8:1],5,
5,8-5[8:1],,8,,,3/4,3/4,
4/5,4/5,{16}5,6,5,6,5,7,6,7,6,7h[16:11],,,,,,,,,8,
1,{4}2-4[8:1],2,
{8}6h[8:1],5,6h[8:1],3,6h[8:1],4,6h[8:1],3,
6h[8:1],5,{4}6<1[8:1],{8}6,5,4,3,
3h[8:1],4,3h[8:1],5,3h[8:1],6,3h[8:1],5,
3h[8:1],6,{4}3-1[8:1],3b,7b/8b-5[8:1],
1b/8b-3[8:1],8b/6b-3[8:1],5b/6b-8[8:1],6b/5b,
4b/3bh[2:1],{8}4b,{16}4b,5b,{4}6b,7>2[8:1],
4-1[8:1],4/5,{16}8,1,8,1,{4}8,
{8}7/5,4-2[8:1]/8-4[8:1],,,,,{4}1b,
{8}4/7-3[8:1]
||这是一个标记~
,3,{4}7,1>4[8:1],1/8,
5-1[8:1],5,{8}8/7,6,7/8,1,
{4}7-5[8:1]/8-4[8:1],7/8,{8}2,3,5,4/6,
{2}3-8[8:1]/7-4[8:1],{4}E2f/E6f,{8}7-3[8:1],3-7[8:1],
{4}7,1>4[8:1],1<6[8:1],{8}1,3,
{4}4w8b[8:1],4,{8},,2
||这是一个标记~
,2,
6,6,{16}3,5,3,5,4,6,4,6,{8}5-2[8:1]*-8[8:1],
||这是一个标记~
,
,,{4}1h[2:1],,8b-4[8:1]*-6-1[8:5],
8b,2b-5[8:1],2b,7-5[8:1]/8-5[8:1],
8-2[8:1]/7-2[8:1],7/8,3/6,{24}2,3,4,5,6,7,
{4}8-3[8:1]/4x-7[8:1],4b-1[8:1]/8b-5[8:1],,8qq4[8:3]*pp4[8:3],
{8},,,Cf,,,{4}3>7[8:1],
3/5,5<1[8:1],5/3,3>7[8:1],
3/5,5<1[8:1],5/3,3V17[8:1],
3/5,5V71[8:1],5/3,4h[16:3],
3h[16:3]/5h[16:3],6/2,,1/E8,
1/E3,1/B6,1/E4,8/E2,
8/E3,8/B3,8/E4,{8}1/E8,1,
2/B6,2,3/A5,3,5x/3x,4x/6x,5x/7,{16}1,2,
3
||这是一个标记~
,4,{24}5x,6,7,8,1,2,3,,,{8}5bx-8b[8:1]*-7b[8:1],5bx,{4}5bx-1b[8:1],
{8}4bx,3bx,{4}8bx-4b[8:1],8bx/1bx,2bx-5b[8:1]/6bxv1b[8:1],
2bx/6bx,{8}4bxh/8bxh,4bxh/8bxh,{16}7bxh,5bxh,{8}6bxh[8:1]
||这是一个标记~
,{4}4bx-7b[8:1],
{8}4bx/3bx,2bx,{4}1bx>4b[8:1],1bx<6b[8:1],1bx-5b[8:1],
1bx,4bx-2b[8:1]/6bx-8b[8:1],4bx/6bx,1bx/2bx-6b[8:1],
{8}2bx/8bx,7bx,{4}5bx-7b[8:1]*-8b[8:1],5bx-2b[8:1]*-3b[8:1],5bx,
7bxh[4:3],{8}8b,8b,8b,{16}8b,1b,{4}2b>4b[8:1],
{8}1bx/2bx,8bx,{4}7bx-2b[8:1],7/4>1[8:1],4<7[8:1],
4w8[8:1],4,{8},,3h[8:1],4,
3h[8:1],5,3h[8:1],6,3h[8:1],8,3h[8:1],7,
3h[8:1],5,3h[8:1],6,3h[8:1],5,3/4,3/4,
4/5,4/5,5/6,5/6,{16}5,6,5,6,5,6,5,6,
{24}5,4,3,2,1,8,7,6,5,4,3,2,{4}1-5[8:1],1>4v2v5v7<8[2:11],
{1},,,,,{4},,{8},7,
{4}7h[1:1],
,2h[2:1],,,1-4[8:1]/8-5[8:1],
1/8,,4/3h[4:1],
1,{8}4/5h[#0.2857132],4,{4}1,5/6h[4:1],
8,{8}6/5h[4:1],6,{4}8,4/3h[4:1],
1,{8}4/5h[4:1],4,{4}1,{8}8,8h[2:1],
{16},,,,,,1,1,{4}8,4/3-7[8:1],
5,4/3-1[8:1],5,5/6-2[8:1],
4,5/6-8[8:1],4,3h[2:1],
,2h[2:1],,8h,
{8}3/6,8/1,{4}5-1[8:1]/4-8[8:1],4/5,{8}2x,4,
2,3,2,6,2,4,2,5,
2,6,2,5,{4}1-5[8:1],7h[8:1],
{8}7h[8:1],5,7h[8:1],4,7h[8:1],3,7h[8:1],4,
7h[8:1],2,7h[8:1],3,{16},8,1,8,{4}1b-4-2[4:1],
,8-4[8:1],,1v6-8-5[2:1],
,,,8-4[8:1],
8b/2h[4:5],,,4b,
5b,6b,7b-1[8:1],3b-1-5[2:1],
,,{2}6b-3V16[1:1],
{4},,,2b-7-4-1[2:3],
,,{2}8b-3-6[4:3],
{8},,,,,7b-3-6[1:1],,,,,,,{4}2b-6[8:1],
2b<3[1:1],
,,,7h[4:1],
,8h[2:1],{24},,,,,,2,3,{6}4,
{24}7,6,{12}5,{24},,6/3,7/2,{6}1h[8:1]/8h[8:1],{24}2/7,3/6,{12}4/5,,{4}1/8-3[8:1],
{8}8/7,6,{4}5<8[8:1],5,1/2-5[8:1],
{8}2,1,{4}8-5[8:1],8,{8}4,4,
3,3,2,2,1,1,{16}8,1,8,1,
8,1,8,1,8,1,8,1,{32}A1,D2,A2,D3,A3,D4,D4,A4,{4}D5/6-4-8[4:3],
{8},,,,,,3,3,
{16}4-2[8:1],5,4,5,{8}4,8b,{4}8b,{8}2>4[8:1],1,
2,7-5[8:1],5-1[8:1],7,3,2,2,7-3[8:1],
3,7,4,5,6/4,3/7,{4}8/2-5[8:1],
{8}6,7,3,2,8-4[8:1]
||这是一个标记~
,8,{4}2-5[8:1],
2b/1b,{16}6x
||这是一个标记~
,5x,,5x,{8}6x,4/7,2-6[8:1],2,
7-3[8:1],7,1-5[8:1],1,8-4[8:1],8,{4}3>8b[8:1],
3/C,{8}7,7,6,6,{4}4-2[8:1],
4/5-7[8:1],5/8w4[8:1],8,2h[8:1]/6h[8:1],
5h[8:1]/3h[8:1],{16}4,5,,5,{4}2b,{8}2/6,{16}3,4,
{4}3>8[8:1],{16}7x,6,{8}5h[16:1],{16}6x,5,{8}4,3/7,{16}6,5,
{4}6<1[8:1],{16}2x,3,{8}4h[16:1],{16}3x,4,{8}5,6/2,{16}1,8,
{4}1>4[8:1],{16}4x,5,{8}6h[16:1],{16}5x,6,{8}7,5/1
||这是一个标记~
,{16}6,2,
{4}6>3[8:1],{16}8x,1,{8}2h[16:1],{16}8x
||这是一个标记~
,7,{8}6,3/5,{16}3,5,
{4}3>8[8:1],{16}7,6,{8}5h[16:1],{16}6,5,{8}4,7/2,{16}6,3,
{4}6<1[8:1],{16}2x,3,{8}4h[16:1],{32}3x,4x,5x,6x,7x,8x,1x,2x,{4}3xh[4:1],
{8}2-6[8:1],1,{4}4-7[8:1]*-1[8:1],4,{8}8,8h[8:5],
,,,,{4}1b,3>7[8:1],
3/6,{8}5<1[8:1],5,{4}5/2,3>7[8:1],
3/6,{8}5<1[8:1],5,{4}5/2,3>7[8:1],
3/6,{8}5<1[8:1],5,{4}5/2,3>7[8:1],
3/6,{16}5-7[8:1],4,,4,{4}5,{8}8-4[8:1],1-5[8:1],
8V62[4:1],1,8,3,{4}3,{8}2-5[8:1],1,
2/8-4[8:1],7,8/3,2,{4}2-7[8:1],2b/6h[2:1],
,5h[2:1],,4,
8w4[8:1]/1w5[8:1],{16}1x/8bx,B7/E7/B6/B5/B4/B3/E3/B2/B8/B1/Cf,,,,,,,{8}4/5,{16}6,5,
{8}7,8/1-3[8:1],,1/4-8[8:1],5x,4/7-5-1b[4:1],,7,
{4}Cf,2h[4:1],{8},,1>5[8:1],1,
{24}5-1[8:1],6,7,8,,,,,,8,7,6,{8}5,3x/7x,,6/4,
{4}7/3,8v5[8:1]/2v5[8:1],2/8,{8}4/6,3,
{16}7,8,{8}6,5/4,3,1/2,1/8,7,6/4,
5,6/4,{4}3-8[8:1]/7-4[8:1],,1b/5b,
2b/6b,{8}7b/3b,{16}7/3,6/2,5/1,4/8,{8}3-7[8:1]/7-3[8:1],,,,,2bx/7bx,
7bx/2bx,{4}1w5[8:1],1bx,
{8}3/7-5[8:1],6,{24}3/7x>2[8:1],2,{6}1,{24}4x,,,5x<8[8:1],{48},,,,,,,,,,,,,,,,{16}2,
3,{8}4,{4}5h[8:1]/1h[8:1],{8},2/5,5/2,{24}4x,3x,4x,
{8}3x,5-1[8:1],,1w5[8:1],,B1/Cf/B5,,,{4}5-2[8:1],
5-8[8:1],5,{8}7x/1x,{16}6,5,
{4}6-1[8:1],6,4,{8}2/5,{16}3,4,
{4}3v8[8:1],3,5,3b/7h[1:1],
,2b,{32},,,,,,,,1b,2,3,4,5,6,7,8,
{4}1-5[8:1],1,6/4,B7/E7/E6/B2/E3/E4/Cf/A7f/A2f/E5f,
E
