&title=Vindication
&artist=Laur
&first=0.5
&des=Jun
&lv_5=13+
&inote_5=(174)
{32}2x,3x,4xh[32:14],,,,,,{16},,,,7,,4,,7,,3,,
6h[4:1],,B6,,4h[4:1],,B4,,5h[4:1],,B5,,3h[4:1],,B3,,
{32}8x,7x,6xh[32:6],,,,,,{16}4h[8:1],,C,,,,3,,5,,2,,
6,7,8,,2h[8:1],,4h[8:1],,6h[8:1],,B5,,2h[8:1],,B3,,
{32}7x,6x,5xh[32:14],,,,,,{16},,,,2,,5,,2,,6,,
4,,7,,4,,8,,1,,7,,1,,6,,
{32}1x,2x,3xh[32:6],,,,,,{16}B7,,4h[8:1],,B8,,2,,6,,1,,
{32}7x,6x,5x,,{16},,,,,,45,,36,,27,,,,
{32}1x-5[8:1],2x,3x,,{16}5-3[8:1],,1,,6,,,,7-1[8:1],,1-3[8:1],,3-5[8:1],,
5,,,,8<5[2:1],,,,8,,1,,2,,3,,
4h[8:3],,,,,,6h[8:3],,,,,,3,,2,,
1,,{32}7x,6x,5x,,{16}3h[8:1],,2h[8:1],,1h[4:1],,B1,,7h[4:1],,,,
{32}2x,3x,4x,,{16}6,,6,,7,,7,,8,,8,,1,,
2,,,,1,,,,8,,C,,7,,,,
{32}1x/8x,2x/7x,3x/6x,,{16},,,,4h[4:1]/5,,,,6,,2h[4:1],,,,
8,,,,1s5[4:1],,7s3[4:1],,,,,,,,,,
{8}1b-4[8:1],8,7,6x-1[8:1],5,4,3b-6[8:1],2,
1,8x-3[8:1],7,6,5,,1/3,,
6b-3[8:1],7,8,1x-6[8:1],2,3,4b-1[8:1],5,
6,7x-4[8:1],8,1,2,,46,,
1b>4[8:1],8,7,6x<1[8:1],5,4,3b<6[8:1],2,
1,8x>3[8:1],7,6,5,,1/3,,
6b>3[8:1],7,8,1x<6[8:1],2,3,4b>1[8:1],5,
6,7x<4[8:1],8,1,2,,46,,
2b-6[8:1],2,2,1b-5[8:1],1,1,8b-4[8:1],8,
8,7b-3[8:1],7,7,6,,24,,
7b-3[8:1],7,7,8b-4[8:1],8,8,1b-5[8:1],1,
1,2b-6[8:1],2,2,3,,75,,
2b>5[8:1],2,2,1bq5[8:1],1,1,8bp4[8:1],8,
8,7b<4[8:1],7,7,8,,35,,
7b<4[8:1],7,7,8bp4[8:1],8,8,1bq5[8:1],1,
1,2b>5[8:1],2,2,1,,46,,
{16}C/E2/E8,,E6,,E5,,E4,,,,,,C,,,,
E7,,,,,,E1,,,,,,E3,,,,
B6/B3,,,,,,B1/B8,,,,,,E5,,,,
{1},
{4}15,26,37,48,
15,26,37,48,
{8}1,2,3,4,{16}5,6,7,8,{32}1,2,3,4,5,6,7,8,
1w5[2:1],
{8},,,,,,,,
{32}2,3,4,5,6,7,8,1-5[8:1]/5-1[8:1],,,,,,,,{16}1>6[4:1],,,,1x,,,,
4,7,3,6,2,5,1,4,2,5,3,6,4,7,5,8,
{32}4,3,2,1,8,7,6,5,4hbx[4:1],8bx,7,6,5h[8:1]bx,,,,
{16},,4,5,3,6,2,7,1,8,2,1,3,8,4,7,5,6,8,7,1,6,2,5,
{32}3,4,5,6,7,8,1,2,3,4,5,6,7,8,1,2,3/7,6,5,4,3,2,1,8,7,6,5,4,3h[8:3],A8,A1,A2,
{32}A3,A4,A5,A6,A7,A8,E1,E2,E3,E4,E5,E6,E7,E8,E1,,Cf,,,,,,,,,,,,,,,,
{16}2b/8b,,,,1-5[8:1]/7,,2/8,,3/1b,,2v7[8:1],,,,2b,,
{16},,6/8v5[8:1],,7/1,,8b/2,,,,2/8,,7/1,,8/6,,
{32}7b/1,6,5,4,3,2,1,8,7,6,5,4,3,,,,{16}1bx-5[8:1],,1bx,,1bx<3[4:1]b,,,,
{16}1b,,,,7b,,6b,,4-8[8:1],5,4,5,4b<2[4:1]b,,,,
{16}4b,,,,,,,,8b-4[8:1],,8b,,8b>4[4:1]b,,,,
{16}8,,,,8-4-8[4:1]b,7,6,5,4/8,,,,,,,,
{16}1,5,1,5,2,6,2,6,3b-8[8:1],,7bq4<1[2:1],,3b,,7b,,
{16},,,,,,,,{32}1,8,7,6,1/5,8/4,7/3,6/2,5h[8:1]/1h[8:1],,,,,,,,
{16}7b/1b,,,,8-3[8:1]/2,,7/1,,6/8b,,7v2[8:1],,,,7b,,
{16},,3/1v4[8:1],,2/8,,1b/7,,,,7/1,,2/8,,1/3,,
{4}8bw4[2:1]b/2,,,,Chf[1:1],,,,
{8}B2/B7,,,{32},,E7,,{8}B6,,,,
,{16},B6,{8}B5,,B3,,B1,,
{32}E8,B7,B6,,,,,,{8},,B5,,B4,,
{32}E2,B2,B3,,{8},,,E4,,E6,,
{32}E1,B1,B2,,{8},,,,E4,E5,E6,
{32}B8,B7,E7,,{8},C,,B2,,B5,,
{32}B3,E4,{16},{8},B6,B1,,E8,E6,E4,
E2,,,,E5,C,E1,,
{32}1x>3[4:1],,{16},,,{8}3<5[4:1],,5<7[4:1],,7>1[4:1],,
1h[2:1],,,,2,3,4,5,
6>3[4:1],,3>8[4:1],,8<5[4:1],,5>2[4:1],,
2<7[4:1],,7<4[4:1],,4>1[4:1],,1<6[4:1],,
{32}6w2[4:1],,,,{8},,,,5,4,3,
2/C,,6/C,,4/C,,8/C,,
1/Chf[1:1],1,2,2,3,3,4,4,
5b,,,,,,{16}1p5[3:1]/5p1[3:1],26,37,48,
15,,,,,,,,,,48,,37,,26,,
1>3[8:1]/5h[8:1],,,,1-4[8:1]/6h[8:1],,,,1-5[8:1]/7h[8:1],,,,1-4[8:1]/8h[8:1],,,,
1/2h[8:1],,,,4,,2,,,,7-4[8:1],,1-5[8:1],,7,,
1,,,,,,,,2-4[8:1]/6-4[8:1],,,,2>8[2:1]/6>8[2:1],,,,
26,,,,,,,,,,6V84[4:1],,1-3[8:1],,6,,
1<7[8:1],,,,1-6[8:1]/2h[8:1],,,,1-5[8:1]/2h[8:1],,,,1-4[8:1]/2h[8:1],,,,
1/2h[8:1],,,,4,,2,,,,8-4[8:1],,2-5[8:1],,8,,
2,,,,,,,,27,,36,,4w8[3:1]/5w1[3:1],,,,
45,,,,,,,,,,2-4[8:1],,4-6[8:1],,2,,
8-4[8:1],,,,8,,1h[8:3],,,,,,4,,,,
5-1[8:1],,,,5,,4-7[8:1],,,,4,,5,,6,,
5<1[4:1],,,,1>5[4:1],,,,5<1[4:1],,,,1w5[3:1],,,,
,,,,,,,,,,1-3[8:1]/8,,7,,16,,
5-7[8:1],,,,5-8[8:1]/4h[8:1],,,,5-1[8:1]/4h[8:1],,,,5-2[8:1]/4h[8:1],,,,
5/4h[8:1],,,,,,,,,,26,,37,,62,,
37,,,,,,36,,,,,,,,,,
{8},,,,{64}8x,7,6,5,,,,,8x,7,6,5,,,,,8x,7,6,5,,,,,8x,7,6,5,,,,,
{8},{64}1x,2,3,4,,,,,1x,2,3,4,,,,,1x,2,3,4,,,,,,,,,,,,,8x,7,6,5,,,,,8x,7,6,5,,,,,8x,7,6,5,,,,,
{8}1s5z1[2:1]*<1[2:1],,,,,,,,
1z5s1[2:1]*>1[2:1],,,,,,,,
{8},,,,{64}6x,5,4,3,,,,,7x,6,5,4,,,,,8x,7,6,5,,,,,1x,8,7,6,,,,,
{8},{64}2x,3,4,5,,,,,2x,3,4,5,,,,,2x,3,4,5,,,,,,,,,,,,,1x,8,7,6,,,,,1x,8,7,6,,,,,2x,1,8,7,,,,,
{8}7xz3<1[4:7]/3xz7<1[4:7],,,,,,,,,,,,,,,,
{8},,,,{64}6x,5,4,3,,,,,7x,6,5,4,,,,,8x,7,6,5,,,,,1x,8,7,6,,,,,
{8},{64}3x,4,5,6,,,,,2x,3,4,5,,,,,1x,2,3,4,,,,,,,,,,,,,6x,5,4,3,,,,,7x,6,5,4,,,,,8x,7,6,5,,,,,
{4}1xs5>8[4:7]/8xz4<1[4:7],,,,,,,,
{8},,,,{64}8b,7,6,5,,,,,1b,2,3,4,,,,,7b,6,5,4,,,,,2b,3,4,5,,,,,
{8},{64}7b,6,5,4,,,,,7b,6,5,4,,,,,7b,6,5,4,,,,,,,,,,,,,2b,3,4,5,,,,,2b,3,4,5,,,,,2b,3,4,5,,,,,
1x<1z5[1:2]b*>1s5[1:2]b,E
