&title=More One Night
&artist=emon(Tes.)
&first=0
&des=鹿遥
&lv_5=13
&inote_5=(123)
{16}
{16}
,
E1,B1,B2,E3,E7,B6,B5,E5,E2,B2,B3,E4,E8,B7,B6,E6,E3,B3,B4,E5,E1,B8,B7,E7,E4,B4,B5,E6,E2,B1,B8,E8,
{4}
1-6[8:1]-2[8:1]-5[8:1]*-4[8:1]-8[8:1]-5[8:1],,,3b/7b,
{16}
2/8<3[4:1],,7,,3q8[4:1]/8,,2,1,,B1/E2/B2,,B2/E2/B1,,,,,
7/1v4[4:1],,6,,4>1[4:1]/1,,6,7,,B2/C/B3,,B2/C/B3,A1f,,,,
2/8-6[8:1]-4[8:1],,7,,4<8[4:1]/8,,2,1,,B1/E2/B2,,B2/E2/B1,,,,,
7/1s5[4:1],,2,,5>1[4:1]/1,,6,7,,B2/C/B3,,B2/C/B3,A1f,,,,
3/1-5[16:1],,3x,2x,1x/7p4[16:3],,8,1,7,B2/B3/E3,,B2/B3/E3,,,,,
6/8-4[16:1],,6x,7x,8x/2q5[16:3],,1,6,2,B7/B6/E7,,B7/B6/E7,Cf,,,,
{8}
1h[8:1],Ch[8:1],3h[8:1],5h[8:1],Ch[8:1],6h[8:1],4h[8:1],8h[8:1],
{16}
1,7,3,5,2-6[16:1]b,8,4,6,2b,,,,
{8}
7,6,5-7[8:1]-1[8:1],,1-5[8:1],2,3p5[4:1],,5p7[4:1],5,7p1[4:1],7,1>4[8:1],1,
8<5[4:1],,5p4[4:1],5,4>1[4:1],4,1-5[8:1],1,
3-1[8:1],,3-7[8:1],6,3-5[8:1],6-8[8:1]-4[8:1],3,6,2,,
2-6[8:1]/4,3,2/8p6[4:1],,8/2,3,4,,
2-5[8:1],8-4[8:1],2-6[8:1],8,2-8[16:1]-6[16:1],8,2/7,,
8-4[8:1]/6,7,8/2pp5[4:1],,2/6,7,8-6[8:1],1-5[8:1],8-4[8:1]b,1-6[8:1]b,
8b-3[8:1]b,1b>4[8:1]b,8b<5[8:1]b,1b,8b,,,,
{16}
2,2,4,4,1b,,7,7,5,5,8b,,
{16}
2,4,3,5,1,7,4,6,2,7h[16:9],,,8b,,E7,E6,E5,E4,3bx/8bx,,
7-4[16:1],3,6,2,7b,,2-5[16:1],6,3,7,2b,,8,4,7,3,6,2,5,1,8x-3[8:1]/4x-7[8:1],,,,8b-5[8:1]/4b-1[8:1],,,,,,,,
1-5[16:1],2,3,4,1b,,4-8[16:1],3,2,1,4b,,3-1[16:1],3,5,5,3b,,
6x/2x,7x/3x,6x-1[8:1]/2x-5[8:1],7x/3x,6bx/2bx,,6bx>3[8:1]/2bx<7[8:1],,
{8}
,,,
{64}
7bx/1bx,2x,3hx[32:11],,,,,,
{8}
6,5,4,
{64}
7bx/1bx,6x,5hx[32:11],,,,,,
{8}
2,3,4,1b/7b,3b/5b,1bw5[16:1]b/7b,4b/6b,
{64}
1b,B1,Cf,B5/B4/B6,,,,,,,,,,,,,
{8}
2-6[8:1]b/6<1[8:1],1>5[8:3],2b/6,,5<8[4:1],,
{6}
8z4[4:1],1,
{24}
2h[24:7],,,,
{8}
,B1/E2f,B7/E8f,B3/E4f,B5/E6f,,
{8}
,2,8<6[8:1]/3>8[8:1],,8b-4[8:1]/3b,,
{12}
8/6,,,6pp6[4:1],
{24}
,7,,,6qq6[4:1],,,B8f/B7,,,C,,,B4f/B5,,,C
,
{12}
,
{8}
,,,6<1[8:1]/1>3[8:1],,1b-5[8:1]/6b,,1/3,
{12}
,4>8[6:1],,8-2[8:1]-4[8:1],
{24}
,
{8}
E5/B5f,E6/B6,E7/B7f,E8/B8,
,,,5,3q5[4:1]/7,,3/5<1[4:1],7,1>4[4:1],,4<5[16:1]-2[6:1]-4[8:1]-8[6:1],5,6,7,8,8w4[2.4##0.3]b,7h[8:9],,1h[8:7],,,,,,,
{16}
A8f,C,A4,,,,
{8}
2/8-4[16:1],1/7,6/8,7/1-5[16:1],8/2,3/1,2/8-4[16:1],1/7,6/8,7/1-5[16:1],8/2,3/1,
4b,6b,2b,8b,
7/1<6[16:1],8/2,3/1,2/8>3[16:1],1/7,6/8,7/1<6[16:1],8/2,3/1,2/8>3[16:1],1/7,6/8,
5b,3b,7b,1b,
2/8-5[16:1],1/7,6/8,7/1<6[16:1],8/2,3/1,2/8-5[16:1],1/7,6/8,7/1<6[16:1],2/8,3/1,
2b,4b,6b,8b,
7-4[16:1]/1,8,7/1,2-5[16:1]/8,1,2/8,7-1[32:1]-3[32:1]/1
,8,7/2,,
Cf,,
{4}
1h[4:1],3h[4:1],5h[4:1],8h[8:3],
{16}
2h[8:1],,3x/7x,4x/6x,5b,
