&title=Secret Rose Garden
&artist=葉月ゆら
&first=0
&des=おにねこ
&wholebpm=130
&lv_5=13+
&inote_5=(130)
{1},,
{8}
5<8[8:1],6,4,3>1[8:1],2,4,,7,6,5<7[8:1],4>1[8:1],3,,8,7,6,
4>1[8:1],3,5,6<8[8:1],7,5,,2,3,4v1[8:1],5v8[8:1],6,,2,3h[8:2],,
4b<3[8:4],,,1bq5[32:7],,,,,6h[8:3],,1,1h[8:3],,4,4h[8:2],,
3b<2[16:10],,,7b<4[16:4],,,,,3h[8:2],,4h[8:2],,5h[8:2],,6h[8:2],,
3b<1[16:7],,,8b<3[16:6],,,,,2h[8:3],,5,5h[8:3],,8,8>6[8:3],,
6b,,,7bv2[16:2],2q7[16:3],,,4,4<4[16:10]*V68[32:10],,,,,,,,
8,,85,4,8p3[16:2]/3,2,3<6[8:1],,1,2,8v3[8:1]/3,4,5>2[8:1],5<8[8:1],,,
4,3,52,1,5v8[8:1]/8,5p1[8:1]/8,,,6h[8:2],4,5h[8:2],8,7h[8:2],3,4h[8:2],6,
5,3,46,7,4>1[16:2]/8,47,6/4pp6[16:3],,3,2,1-4[8:1],4,5-8[32:4],5V36[16:3],,,
8-4[8:1],,81,2,3qq3[32:7],,4q5[8:2],5,6pp6[8:2],,6,3,3w7[8:1],,,,
8<5[8:1]/1,,8/4q8[8:1],3,4/1>4[8:1],,1/5p1[8:1],6,5/8>3[8:1],7<5[32:3],8pp5[16:5]*qq4[16:5],7,,,,,
{16}1<4[16:3],2,3,4,,,,,1<5[8:1],2,3,4,,,3h[8:1],,8>3[16:2],7,6,5,8q4[8:1],,7,7,8>3[8:1]*<5[8:1],,,,,,,,
{8}
4>1[8:1]/5,,4/8q4[8:1],7,8/5<8[8:1],,5/1,2,
7<4[8:1]/4,4p7[8:1]/7,4qq4[8:2],,,,8h[8:1],,
4q8[8:1]/8V64[8:1],,84,,1V35[8:1]/5p1[8:1],,5>7[32:7]/1,,8b,6,6h[8:1],
{16}4,5,2,4,1,8,3bv8[8:1]/6b,,,,
3<6[8:1]/4,,,7,3,,8,,7<4[8:1],5,,2,7>2[16:2],,8,,
5pp4[8:2],,4,,5b/3qq4[8:2],,,,3b,,,,7h[8:2],,,,
{8}8-4[8:1]*-4[8:1],35,{16}81,,2,,{8}5-1[8:1]*-3[32:3],3/1<7[32:3]*<7[32:3],5,,
2q6[8:1],7>2[8:1],2,7,{16}3,3,5,4,8,,8,1,
6qq5[16:3],,,2,6,,1,,2q6[8:1],4,,7,2<7[16:2],,1,,
5-1[32:4],,6,,5b/2s6[32:7],,,,2b,,,,7h[8:2],,,,
{8}8v5[8:1],5<8[8:1]/4,2,,4v1[8:1],1>4[8:1]/8,6,,
6>3[8:1],72,6,1,
{16}2q6[8:1]/6q2[8:1],3,7,,6>3[8:1]/2<7[8:1],,,,
{8}
6bpp4[16:6],,6,4bpp3[16:5],3,2,1,,
2bqq4[8:3],,2,4bqq5[16:5],6,7,8,,
6b<1[16:2],,65,4bq7[16:5],3,2,1,,
2b>5[16:2],,25,{16}6b>3[8:1],,8,8,6,,8-5[8:1],,1,1,
{8}
8bV25[16:4],,5qq2[16:5],6b,7,8,1-6[8:1],,
6bV84[16:4],,4pp7[16:5],3b,2,1,8-3[8:1],,
3bV15[16:4],,5qq2[16:5],6b,7,8,1h[8:2],,
{16}5b,7,3,5,1h[8:1],,4b,2,6,4,8h[8:1],,1-4[32:4]*-6[32:4],,,,
{8}
1b-5[8:1],,1/7>2[8:1]*<4[8:1],8,7p3[32:4],,1v4[8:1]*p5[8:1],2,1<6[32:3],,
1/3<6[8:1],2,{16}3qq6[32:11],1,1,,8-5[32:4],,,,,,,,
{8}
1-5[8:1]/6-1[8:1],,6/1V73[16:3],,4qq5[8:2],4,4,,8-5[8:1],5,{16}8z4[32:5],4,4,,
8,,,,
{8}
2-5[8:1]/6-1[8:1],,2<7[8:1]/6>3[8:1],,2/6V85[16:3],,1-3[32:3]*-4[8:1],,1-6[8:1]*-5[8:1],,1,,
{16}
7V51[16:3]/4,,,5,7,,3,,2V48[32:5]*V46[32:5],,1,,2,,,,
1p5[8:1]/7-5[32:3],,,,1pp1[32:7]/7,,,,1,6,6,,8,,4,5,2,4,1,,2/8v5[8:1],,46,,
{8}8qq5[32:10]/2,,4v1[8:1],3,4qq1[32:10],,7v4[8:1],6,7qq4[16:5],,3,
{24}3,2,1,{8}8w4[16:2],,,,
2-6[8:1]/8,,2V41[32:6]/6V41[32:6],,6V85[32:6]/2V85[32:6],,,,
{8}3>8[8:1]/4,2,35,7,{16}6>3[8:1],5,7,,1,,2,2,1-5[8:1],,,,1qq4[16:5]*pp6[16:5],,,,1,,,,,,,,
1V74[16:3]/5,,,2,1-4[8:1],,3,,1-6[8:1],,8,,
{8}1pp4[16:6],2,5,5,6,6,78,21,34,56,
{16}7,8,5,2,6,1,4,3,
{32}6,7,8,1,2,3,4,5,6pp5[8:5],7,8,1,2,3,4,5,
{8},,4,,3,,2pp1[8:5],,2,,8,,7,,6v3[8:1],,6<4[32:12],,1,,4<8[32:8],,8>4[32:8],,4>5[8:4],,1,,3,,2h[8:6],,
3,1,4,8,5,78,43,21,
{16}4,5,1,7,4,5,2,8,
{32}2,3,4,5,1,8,7,6,3,2,1,8,4,5,6,7,
{8}4bqq2[32:4],5<8[32:4],4,5,{16}2>5[8:1],,1qq7[32:4],,2,,1pp4[16:5],,,,6,,7,,8,,
{16}1p5[32:4],,4>2[32:3],4,1,,4,,
5<7[32:3],,8q4[32:4],8,5,,8,,
7<4[32:4],,3qq2[32:5],,7,,3,,
4<7[32:4],,1>4[32:4],,4,,1,,
8-4[8:1],8,4,,8,,2,2,{8}
5pp7[32:4],4>1[32:4],5,4,{16}7<4[8:1],,8pp2[32:4],,7,,8qq5[16:5],,,,3,,2,,1,,
{16}8>3[32:4],,5<7[32:3],5,8,,5,,
4>2[32:3],,1<6[32:4],1,4,,1,,
2-5[32:4],,6v1[32:4],,2,,6,,
5v2[32:4],,1-6[32:4],,5,,1,,
3v8[8:1],3,5,,3>3[8:16]/7<7[8:16],,,,7b/3b,,{8}
