&title=ファシネイター
&artist=MATERU
&first=0.075
&lv_5=13+
&des=mmfc
&inote_5=
(140){4},{16},,,,,,,,,,,,
{1},{4},2h[2:1]/8b<3[2:1],
,,,7h[2:1]/1>6[2:1],
,,,3/5-7[8:1],
3,3/8-6[8:1],
3,{8}2/4,2,5/3,5,{4}7<5[8:1]/4>2[8:1],
,3h[8:1]/4h[8:1],{16}5,5,2,2,{4}7h[8:1],
{16}5,5,8,8,{8}2,{16}6/4,6/4,,3/5,{8}3/5,{4}2h[4:1]/4h[4:1],
{16},,5,6,{4}7V51[4:1],{16},,4,3,{4}2V48[4:1],
{16},,7,6,{8}5,1,4/2,3/5,{4}6/4<5<6<7>8>1[16:3],
4-8[8:1],Cfh[4:3],{8},,,,,,1V35[4:1],
6,1<8<7<6>5>4[16:5],8,1,3,
2,1,6-8[8:1],3,6qq4[16:3],2,6,1h[4:1],
,3,5<6<7>8>1[4:1],2,5-3-1-7[8:3],4,5,7,
6,5,1-3<4[8:1],4,1-7<6[8:1],6,1,5h[4:1],
,,4V28[4:1],7,4<5<6<7>8>1[16:5],5,4,2,
3,4,7-5[8:1],2,7pp1[16:3],3,7,4h[4:1],
,2,8>1>2[8:1],5,8<7<6[8:1],3,8,4,
7/1,5/3,,,,,,,,,{4}2x-4[8:1]/5xp1[8:1],
{16},,,,6h[8:1]/5h[8:1],,,4h[8:1]/3h[8:1],
,,{8}1/2,{4}7/4,{16},,,,3h[8:1]/4h[8:1],,,6h[8:1]/7h[8:1],
,,{8}8/1,{4}5/2,{8},,4/3h[8:1],4,
5/6h[8:1],5,{4}5qq4[4:1],,6pp7[4:1],
,4xw8[8:1],{16},,,,3h[8:1]/4h[8:1],,,5h[8:1]/6h[8:1],
,,{8}8/7,{4}2/5,{16},,,,6h[8:1]/5h[8:1],,,3h[8:1]/2h[8:1],
,,{8}1/8,{4}4/7,{8},,5/6h[8:1],5,
4/3h[8:1],4,{4}2>5[4:1],{2}8z4[4:1],
{16}3,3,5,5,{4}1-3[8:1],1,{16}6h[8:1]/4-2[8:1],,,6h[8:1],
{8}4,6,{4}1/7-5[8:1],7,{16}3h[8:1]/4-6[8:1],,,3h[8:1],
{8}4,3,{4}8/2-4[8:1],{8}2,{16}6,5,{8}6,2,
4/3,7,1V73[4:1],6,4,5,6V48[4:1],2,
3,2,{4}1xw5[8:1],{16},,,,3h[8:1]/7-5[8:1],,,3h[8:1],
{8}7,3,{4}5/4-2[8:1],4,{16}7h[8:1]/1-3[8:1],,,7h[8:1],
{8}1,7,{4}4/8-6[8:1],{8}8,4,5/3,{16}2,1,
,1,{8}2,3qq1[8:1],7<4[8:1],3,7,{4}Ch[2:1],
,6h[2:1],,8-4[8:7],
,8,8,8,
{8},,5/3,2,5/3,1,5/3,7-3[8:1]/8-4[8:1],
,8b/7b,,,3/4,4/5,5/6,3,
{4}7h[4:1],{8}4h[#0.8571472],A1,A8,A7,6h[2:1],A3,
A2,A1,8h[8:3],A7,A6,A5,B1/A1,B5/A5,
B3/A3,B7/A7,{4}4-7[8:1],2/4-1[8:1],4/6-1[8:1],
5/6,{8}3/6,7/8,6/4,2/1,{4}5/4,
{16},,4,4,{8}8<5[8:1],{16}3,3,{8}8-3[8:1],{16}2,2,{8}8-5[8:1],{16}1,1,
{8}8>2[8:1],{16}4,4,{8}8-4[8:1],{16}3,3,{8}8,{16}2<7[8:1],5,3,4,{8}2,
{16},,6,4,7,1,8,2,{8}1h[8:1],{16}2,8,1,7,{8}8h[8:1],
{16},6,5,6,{8}4/7,{16}3,2/4,,6,{8}5/7,{4}1<7[8:1]*pp3[8:1],
{8},,6/5,7/4,{16}3,3,4,2,{8}6,7/8,
{16}2,2,1,3,{8}6,{16}4/3,5/2,,6/5,{8}7/4,2h[4:1],{24}4,5,6,
7,8,1,3,{48},{16}4,{4}5V31[4:1],{16},,7,6,{4}5V71[4:1],
{16},,4,3,{8}2,1/7,8/6,5/7,{4}Ch[4:1],
{8},,4-8[8:1],8-2[8:1],4-6-3-7b[8:3],6,4,3,
2,1,8>1>2>3[8:1],7qq5[8:1],8<7<6>5>4[8:1],7,8,1h[4:1],
,5,3>2<1[8:1],4,3/5pp8[8:3],4,5,8,
1,2,3>2<1<8[8:1],7<6>5>4[8:1],3,7,{16}1,1,{8}4h[4:1],
,,5-1[8:1],1-7[8:1],5-3-6-2b[8:3],3,5,6,
7,8,1<8<7<6[8:1],2pp4[8:1],1>2>3<4<5[8:1],2,1,8h[4:1],
,6,7>8>1>2[8:1],2,7<6>5>4[8:1],4,7-2[8:1],3-6[8:1],
7,3,,,,,,,,,{4}3-8[8:1]/7-2[8:1],
{8},,4/6,{16}3,3/5,
,7,{8}7/5,{4}6/2>4[8:1],{8},,5/3,{16}6,6/4,
,2,{8}2/1,{4}3/7<5[8:1],{8},,4/2,3,
7/5,6,3qq2[4:1],7,6,5,4pp5[4:1],3,
2,1,{4}8xw4[8:1],{8},,5/3,{16}6,6/4,
,2,{8}2/4,{4}3/7<5[8:1],{8},,4/6,{16}3,3/5,
,7,{8}7/8,{4}6/2>4[8:1],{8},,5/7,6,
2/4,3,5-1[8:1],1-5[8:1],{16},,,,3,3,4,2,
6,6,5,7,{4}3v8[8:1],3,{8}4/2,{16}6,6,
5,7,{8}6,{4}8/1-5[8:1],1,{8}7/4,{16}3,3,
6,5,{8}8,{4}2/1<6[8:1],{8}1,{16}3,4,{8}5/2,7,
8/1,4/6,3>7[4:1],6,5,4,3<7[4:1],8,
1,2,{4}3xw7[8:1],{8},,5/1,{16}3,3,
4,2,{8}3,{4}1/8-4[8:1],8,{8}2/5,{16}6,6,
3,4,{8}1,7h[1:1]/B8,B1,B2,B3,B4,B5,
B6,B7,{4}Cfh[4:3],{24},,,,,,,,,7,6,5,
{4}4b,{8}3>8[8:1]/7<4[8:1],8/4,,,8pp2[8:1]/4v6[8:1],8/4,
,,1/7,5/4-8b[8:1],,7/4,{24},,,1/7,2/6,3/5,
{4}4b,{8}8qq6[8:1]/5>2[8:1],1/4,,,2v4[8:1]/7v5[8:1],2/7,
,,3/8,5/7-3b[8:1],,7/2,{12}1w5[8:1],1,1,
{4}1b,{8}4-8[8:1]/7-4[8:1],8/5,,,5pp7[8:1]/1pp3[8:1],5/1,
,,4/8,2/1-5b[8:1],B3,1,{12}2xh[8:1],{24},,3/6,4/7,
{4}5b/8b,{8}2/1,3/4,6/5,8/7,{16}2,8,2,8,
1,1,1,1,{48}2bx,3bx,{24}4bx,{48},,8bx,7bx,{12}6bx,{48}1bx,2bx,{24}3bx,{48},,7bx,6bx,{12}5bx,4x<7[8:1]/8x>3[8:1],8x/4x,4x/8x,
{4}4x/8x,{8}5/1-5b[8:1],1/5,{4}1/3qq8[8:3],3/7-4[8:1],
7,{8}1/5<8[8:1],4/3,{4}5/2-5-3[16:3],{32}2/8-4[8:1],E3,,,,,,,{8}8,
1,2/5-1b[8:1],8/7,{4}5/4qq1[8:3],{24}8/4<8[8:1],7,6,5,,,,,,,,,{8}7-4[8:1]/2-5[8:1],
8/1,{4}7/2,{16}3,3,5,5,
4,4,{8}6,5/1-5b[8:1],1/5,{4}1/6pp1[8:3],6/2-5[8:1],
2,{8}8/4>1[8:1],5/6,{4}4/7-4-6[16:3],{32}7/1s5[8:1],E7,,,,,,,{4}1,
{8}7/4-8b[8:1],1/2,{4}4/5pp8[8:3],{24}1/5>1[8:1],2,3,4,,,,,,,,,{8}2-5[8:1]/7-4[8:1],
1/8,{4}2/7,{32}4w8[8:1],3,2,1,8,7,6,5,
{4}4,{8}2>5[8:1]/8<5[8:1],1,{4}2/8,{8}4-8[8:1],3,
{4}4/2pp5[8:3],{8}2/6-1[8:1],6,{4}6V84b[4:1],5xw1[8:1],
{8},,8/3qq4[8:3],6/5,{4}7/3,{24}5-1[8:1],6,7,8,,,{4}5/1,
{8}7/2qq5[16:5],4/5,{4}2/7-3-7b[4:1],7xw3[8:1],
{8},,7<4[8:1]/1>4[8:1],8,{4}7/1,{8}5-1[8:1],6,
{4}5/7qq4[8:3],{8}7/3-8[8:1],3,{4}3V15b[4:1],4xw8[8:1],
{8},,1/6pp5[8:3],3/4,{4}2/6,{24}4-8[8:1],3,2,1,,,{4}4/8,
{32}2/7pp4[16:5],1,8,7,6,5,4,3,{4}7/2-6-2b[4:1],2xw6[8:1],
{8},,,,,,,,,,,(110)4h[8:1]/6h[8:7],
,3h[8:1],,2h[8:1],
,1h[8:1],,8h[8:7]/7h[8:1],,6h[8:1],,Ch[8:3],
,,,1>5[4:1],,,{4}7-3[4:1],
{8},,,1h[8:3],3>7[4:1],,,4,
,,,3h[8:1]/5h[8:1],{16},,4,3,,,(105){8}6h[8:1]/4h[8:1],
{16},,5,6,,,(100){8}3h[8:3],1<4[4:1],,,2,
{16},,,,6-2[0.6158##0.4737],6,(95){8}6h[8:3],{16},,,,3-7[0.6491##0.5],3,(90){8}3h[8:3],
{16},,,,8,8,{8}8qq4[0.6863##1.0588],(85)4,3,2,1,
2,(80)3h[#0.75],,(140)5-1[8:1],7/1<6[8:1],2/5-2-4-8b[8:3],3,5,
7,6,5,2/4-8[8:1],5/3-1[8:1],4pp6[8:1],3,4,
{32}8q4[8:1]*v5[8:1],1,2,3,4,5,6,7,{4}8b,
E
