&title=Summering
&artist=じん
&first=0
&des=Nosgel
&lv_5=13+
&inote_5=(204)
{2}
,,,,
{2}
6h[1:1],,B3,,3h[1:1],,B6,,7h[1:1],,C,,2h[1:1],,C,,
8^5[1:1],,4^1[1:1],,7^4[1:1],,3^8[1:1],,
7V58[1:1],,3V14[1:1],,7V16[4:5],,5-2[4:1]b,,
(102)
{8}4hb[8:1]/5hb[8:1],,
(204)
3x>8[8:1],,7,6,5V74[4:1],,3,2,1V35[4:1],,5v2[6:1],7,1v6[8:1],,,,
2x-5[8:1],,6,7,8-4[8:1],,8^3[8:1],,8x^5[8:1],,8xw4[4:1],,8b,,,,
2x>5[8:1],,6,7,8V61[4:1],,2,3,4V28[4:1],,8-3[6:1],7,6v5[8:1],,,,
4x-8[8:1],,5,6,7-3[8:1],,7,1,2x-4[8:1],2,6x-8[8:1],6,5xv2[8:1],5,1xv6[8:1],1,
3x>8[8:1],,7,6,5pp4[4:1],,1,2,3>7[4:1],,7v2[6:1],7,6-4[8:1],,,,
3x-8[8:1],,7,6,5-1[8:1],,5^2[8:1],,5x^8[8:1],,5xqq2[8:3]*pp6[16:3],,5b,,,,
6x-1[8:1],,2,3,4V25[4:1],,4,,1,8,7,6,5,4,3,2,
1-5[29.2#53:1]*-5[29.2#53:1],,,,,,,,,,,,,,1x,,
7,4,6^8[8:1],3h[2:1],6,,1x-5[8:1],,1,E4,E3,E2,6-4[8:1],8x,1x,2x,
3v8^2[8:3],,3,4,5,6,7,8>4[16:5],,E1,E8,E7,E6,E5,C,1x,
2xh[4:1]/7-4-6[4:1],,7,,8,1,2,3V15[4:1],,3/4h[2:1],,,,7-5[6:1],8,1,
2h[4:1],,4xh[2:1],3,2,1,8,4x-7[8:1]/8x-3[8:1],,4/8,,E4,E8,Ch[4:1],,,
6^3[4:1],,3^8[4:1],,8^5[4:1],,5p4[2:1],5x,,E2,E1,E8,,8x,1V38-4[8:3],2,
1x/7,6,5-7[8:1],,5/3xV52[4:1],,3/8,,,E1/B1/3x,,E5/B5/7x,,E8/E4,E7/E3,E6/E2,
8x-4[8:1],,8/6-3[8:1],5,6/2V48[4:1],1x,2,6h[4:1],,E2,,E4/7p4[2:1],,7/1v4[4:1],,,
,,E3,E7,E2,E8,E1,C,A4,A5,A3,6hx[4:1],,8,1,2,
3,4-6[8:1],4,4x-2[8:1],,4x-8[8:1],,4b,,,,,,2h[8:3],5,6,
7,8-6[8:1],8,8x-2[8:1],,8x-4[8:1],,8bw4[16:5],,,,,,E5,E6/E4,E7/E3,
Ch[16:28],,,,,,,,,,,,,,{16},,8,7,
6x/2,,6x/2,,,,7x/3,,,,8/4x,,7x/3,,6/2x,,,,6x/2,,,,1x/5,,,,5bh[4:1],,2^7[4:1],,,,
{8}
7^2[4:1],,6-4[8:1],,6v3[4:1],,6/3V58[4:1],,2h[4:1],,,,1V35[16:3],,1-6[8:1],8,
1-4[8:1],,1,,{24}1x,8x,7x,6x,,,1x/5xw1[8:2],2x,3x,4x,,,{8},,,,2xv3[8:1]*-8[8:1],,2x,,7-5[8:1]
,,7/3v8[8:1],,3-5[8:1]/6^1[8:1],,6pp1[8:3]/3,,,,,,2^4[8:1],,2x/5-1[8:1],,
5x-3[8:1],,5x-7[8:1],,5x-1[8:1],,5x<4[8:3],,,,,,2x-6[8:1],,7V15[16:4],,
7/5-7[8:1],,3x,,2v5[4:1],,2/5V31[4:1],,6h[4:1],,,,8<4[16:3],,8^3[8:1],1,
8-6[8:1],,8-2[8:1]*v3[8:1],,8-6[8:1]*v5[8:1],,8pp4[8:3],,
,,,,7-3[8:1],,7/2^5[8:1],,2-8[8:1]/8-4[8:1],,8/2^4[8:1],,2-6[8:1],,6V82-4[8:2],,
5h[8:3],,,,6-8[8:1],5qq1[8:5],6,5x,,,,,A5,A6,A7,A8,
{16}3x,,1,,3x,,8,,3x,7,3,7,2x,6,2,6,
{8}2x^7[8:1]/5x,,5,5,6x^3[8:1],,1x-4[8:1],1,5-8[8:1],5,2-7[8:1],2,,4,5,6,
6xh[4:1],,2-4[8:1],2,2-5[8:1]/6,,2x,7,,E1,E2,E8,E3,E7,E4,E6,
2h[4:1],,5h[4:1],,3,4,2,3<6[16:3]*V57[16:3],,3x,,,,8,7,1,
8x,1,7x-4[8:1],7,1-5[8:1],1,8-4[8:1],8x,,2x-5[8:1],,E6,E7,E8,E1,C,
3-6[8:1]/6x,6x,6x,,3-6[8:1]/7,,7,8h[8:3],3-6[8:1],,,,3-6[8:1],1x,1,8,
8x-5[8:1],5,8x,1x-4[8:1],4x,1,8x-5[8:1],5xqq6[16:5],8,,1,1,2x,2x,3,3,
{16}5,,4,,4,,5/3,,4x,,4x,6,3,6,3x,6,2,6,2,6h[16:11],2bxh[8:5],,,,,,,,,,,,,,,,
(102)
,,,,
(204)
{4}8<1[2:4]/C,,,,,,,,
8<5^4>1[2:4]*<5^4>1[2:4],,,,,,,,
8<7^6^5^4^3^2^1b[2:4],,,,,,,,
{8}8<1[8:5],,,,,8-5[8:1],,8x-3[8:1],,8xw4[16:3],,8x,,
E
