&title=夢見るままに恋をして
&artist=「ましろ色シンフォニー -mutsu-no-hana」オープニング
&first=0.04
&des=Tane
&lv_4=9+
&lv_5=13+
&inote_4=(160){1},,
{4}4h[2:1],,,5,
4,5,4,5,
{8}2,,,2,
1,,,2,
{8}1-4[2:1],,,,
,,,,
{8}7,,,7,
8,,,7,
{8}8-5[2:1],,,,
,,,,
{8}2,,,3,
2,,3,2,
{8}1,,8,1-4[4:1],
,,,,
{8}7,,,6,
7,,6,7,
{8}1^6[8:4]/5^2[8:4],,,,
,,,,
{8}3,,,1,
2,,6,6,
{8},2,2,,
8,,,1h[4:1],
{8},,,8,
8,,2,2,
{8},6,6,,
2,,,6,
{8}6,,,8,
7,,3,3,
{8},7,7,,
1,,,8h[4:1],
{8},,,1,
1,,7,7<2[2:1],
{8},,,,
,,,,
{4}12,,78,,
{8},8,1,2,
,6h[16:1],,6,
{8}47,,,,
6,5,4,3,
{4}23,,6-3[4:1]/7,,
{8},1,2,1,
,8,,7,
{8},6p4[2:1],,,
,,,,
{8},1,8,7,
,1,2,1>8[4:3],
{8},,,,
,,,,
{4}3h[4:1],,7h[4:1],,
{8}1h[4:1],,,,
1,8,1,8,
{16}1,8,,,
34,,,,
8,1,,,
56,,,,
{8}7,8,1,2,
34,,56,,
{4}6h[4:1],,2h[4:1],,
{8}8h[4:1],,,,
8,1,8,1,
{16}8,2,,,
65,,,,
1,7,,,
43,,,,
{8}2,1,8,7,
65,,43,,
{4}5b/7bs3[2:3],,,,
,,,,
{16}2,1,,,
3,4,,,
6,5,,,
3,4,,,
{4}5-1[8:3]/4-8[8:3],,,{8},2,
{16},4,,4,
3,,,3,
6,,,5,
6,,,,
{4}7-4[8:3]/8-3[8:3],,,{8},1,
{16},7,8,,
1,,2,,
2,1,,,
3,,,,
{4}3qq2[8:3]/4pp5[8:3],,,{8},2,
{8}1,1,,7,
8,8,,4,
{8}6,6,5,5,
{4}4,,
{16}7,8,,,
6,5,,,
3,4,,,
6,5,,,
{4}4-8[8:3]/5-1[8:3],,,{8},7,
{16},5,,5,
6,,,6,
3,,,4,
3,,,,
{4}2-5[8:3]/1-6[8:3],,,{8},8,
{16},2,1,,
8,,7,,
7,8,,,
6,,,,
{4}5pp5[8:3]*qq5[8:3],,,{8},7,
{8}8,8,,2,
1,1,,5,
{8}4,4,5,5,
6,6,7,,
{16}8b/1b,,,,
,,1b/2b,,
1b/2b,,,,
,,7b,,
{16}8b,,8b,,
1b,,1b,,
2b/7b,,,,
,,,,
{8}2,,,4,
3,,7,7,
{8},3,3,,
5-8[4:1],,,4h[4:1],
{8},,,5,
5,,3,3,
{8},7,7^2[4:1],,
3,,,7,
{8}7,,,5,
6,,2,2,
{8},6,6,,
4-1[4:1],,,5h[4:1],
{8},,,4,
4,,6,6<3[2:1],
{8},,,,
,,,,
{16}4,,4,,
5,,5,,
,,8h[4:1]/1h[4:1],,
,,,,
&inote_5=(160){1},,
{1}2<3[4:6],,
{8}2,,,3,
2h[4:1]/4,,,2,
{8}1p8[4:2]/5,,,,
,,,,
{8}7,,,6,
5/7h[4:1],,,7,
{8}8/4pp4[2:1]*qq4[2:1],,,,
,,,,
{16}24,,,,
45,,,3,
4,,5,4,
6,,3,4,
{16}2,,1,,
8,,7,,
6,5,,3,
5,,2,,
{16}1,8,2,,
3,,5,,
8,1,7,,
6,,4,,
{8}15,2>1[2:1]/6<1[4:1],,,
,,,,
{16}2h[4:1]/8h[4:1],,,,
,,1,8,
2,,6,,
4,,3-5[8:1],,
{8},6-2[8:1],6,,
1,1,8,7h[8:3]/1h[8:3],
{16},,,,
,,1,7,
2,,3,,
5,,7-4[8:1],,
{8},3,2,1,
7,8,1,2h[8:3]/8-5[8:1],
{16},,,,
,,5,2,
6h[16:1],,3h[16:1],,
5,,7-3[8:1],,
{8},2-8[8:1],2,,
6,6,8,1-4[8:1]/7h[8:3],
{16},,,,
,,4,7,
3,,5,,
2,,1h[4:2],,
{8},5,5pp5[8:3]*qq5[8:3],5,
,,,,
{4}57,56,24,34,
{16}56,,4,5,
3,,2,,
6,7,,,
3,2,,,
{8}17,,78,,
5,4,3,2,
{4}18,12,{16}7,6,,,
2,3,,,
{16}13,,8,1,
7,,6-4[8:1],,
,,6-2[8:1],,
,,7-4[8:1],,
{16},,1,,
,,25,,
2,3,,,
6,5,,,
{16}35,,3,4,
2,,2-5[8:1],,
,,1,,
8,,8,,
{16}17,,8,1,
8,,1pp1[4:1]/6pp6[4:1],,
,,,,
,,,,
{8}45,,24,,
45,5,24,,
{8}45,4,57,,
45,3,24,1,
{16}7,1,6,2,
5,,3,,
2,8,3,7,
4,,6,4,
{8}8-4[8:1],3^6[8:1]*^6[8:1],8,3,
{16}7-3[8:1],7,,,
1,,,,
{8}24,,45,,
75,7,56,,
{8}24,2,34,,
57,6,34,2,
{16}2,1,3,8,
4,,6,4,
7,8,6,1,
5,,3,5,
{8}24,78,12,57,
{12}25,3,4,57,6,5,
{4}1b/4bp5[2:3],,1h[8:1],1h[8:1],
1h[8:1],1h[8:1],1h[8:1],1h[8:1],
{16}1,1,7,8,
8,,6,5,
6,,3,4,
2,,6,5,
{16}46,,34,,
25,,28,,
1-5[8:1],8,,8,
1,,8h[16:3],,
{16},5,7,4,
6,,3,3,
4,2,5,8,
6,,1,7,
{8}28,34,56,17,
{16}1,2,3,1,
8,7,6/1h[16:3],,
{16},7,8,7,
8,,1,,
2,8,3,,
5,,6,,
{8}57,45,25,73,
{16}5,3,,,
1,,2,,
{16}17,,68,,
,,8,1,
28,,13,,
,,1,8,
{8}17,68,47,25,
{24}5,6,7,8,3,2,
1,8,7,6,,,
{16}8,8,2,1,
1,,3,4,
3,,6,5,
7,3,,4,
{16}53,,65,,
73,,71,,
8-4[8:1],1,,1,
8,,1h[16:3],,
{16},4,2,5,
3,,6,6,
5,7,4,8,
2,,8,2,
{8}71,65,43,82,
{16}8,7,6,8,
1,2,3/8h[16:3],,
{16},2,1,2,
1,,8,,
71,,6,1,
4,,3,,
{8}42,54,74,82,
{16}4,6,,8,
2,,2,1,
{16}82,,31,,
,,7,8,
71,,86,,
,,2,1,
{8}82,31,52,74,
1w5[8:1]/6,38,,{16},,
{16}8b-5[8:1]/1b,,3,3,
8,,2b,,
1b/8b,,6,5,
6,,7b/4b,,
{16}4b/5b,,1b/2b,,
4bV63[8:2]/5b,,7b/8bp1[4:1],,
4b/5b,,,,
,,,,
{16}8h[4:1],,6,,
5,,4,5,
3,,2,,
8,,7-1[8:1],,
{8},7,2-6[8:1],,
2,7,8,7h[4:1]/1,
{16},,1,8,
1,,7,8,
7,,6,,
2,,5^8[8:1],,
{8}4,3,2^5[8:1],1,
8,7,6,5h[8:3],
{16}1,,2,,
3,,5,4,
6h[16:1],,2h[16:1],,
7,,8-4[8:1],,
{8},8,3-1[8:1],,
3,6,7,8/1h[4:1],
{16},,8,1,
8,,2,1,
3,,5,,
4,,6<3[4:3],,
{1},
{16}4,,5,,
3,,6,,
,,1h[16:1],,
,,8h[16:1],,
