&title=あなたのチ○コは何センチ?
&artist=Adult family
&first=0.145
&des=Charholer
&lv_7=调
&inote_7=(170){4},,1,{12}1,,8,{4}1,
(170){4}4/5,3,2/6,1,{12}7h[6:1],,8,{4}7qq3[8:3],2,,
{4}5/4,6,7/3,8,{12}2h[6:1],,1,{4}2pp6[8:3],7,8qq4[8:5]*pp4[8:5],
{4}8,,C,{8}3,2,{4}1qq4[8:5]/8pp5>4[8:5],,,,
{12}2h[6:1],,4,3h[6:1],,5,4,5,4,{4}3pp8b[4:3]/5qq8b[4:3],3/5,,,,
{4}A8/E1/E8,{12}E2,E3,E4,{4}E5/Ch[4:1],,
{8}2>5[4:1],,,8,8-3[4:1],,,5,5-1[4:1],,,7,7<4[4:1],,,8,8p4[4:1],,,1,1q5[4:1],,,2,2h[8:5],,D2/D3,,D2/D3,,,,
{8}6-3[4:1],,,8,8-4[4:1],,,2,2p5[4:1],,,3,3-8[4:1],,,4,4q1[4:1],,,5,5p8[4:1],,,6,6>3[2:1],,{12},,B2,B7,,C,
{8},1,1>4[4:1],,,7,7p2[4:1],,,8,8q4[4:1],,,5,5pp6[4:1],,,2,2pp3[4:1],,,1,1qq7[4:1],,,5,5h[8:5],,D5/D6,,D5/D6,,,,
{8}8<5[4:1],,,2,2-6[4:1],,,1,{4}8-3[4:1],7,6-1[4:1],5,B3/B4/E4/D4,B1/B2/E2/D2,7/8,3/2,6/5q1[8:1]*p1[8:1],,A1/A2/A3/A4/A5/A6/A7/A8/B1/B2/B3/B4/B5/B6/B7/B8/C/D1/D2/D3/D4/D5/D6/D7/D8/E1/E2/E3/E4/E5/E6/E7/E8,,
{4}7v5[8:1]/3v1[8:1],7/3,A1/E2/E1/A5/E5/E6,2-6[8:1]/6,2pp2[8:1]/6pp6[8:1],,1<7[8:1],5>3[8:1],{8}2<6[4:1],,,4,4>8[4:1],,,5,5<4[2:1],,,,D5/E5/B4/B5,,,,
{8}8h[4:1],,1,1h[8:3],,,2-5[8:1],1,2,,{12}6,,6,5,,5,4,,4,{8}3qq5[4:1]/4,,,6,6pp4[4:1],,,2,2bq6[8:1]*p6[8:1],,2b,,A1/A2/A3/A4/A5/A6/A7/A8/B1/B2/B3/B4/B5/B6/B7/B8/Cf/D1/D2/D3/D4/D5/D6/D7/D8/E1/E2/E3/E4/E5/E6/E7/E8,,,,
{4}1-5[8:1],1-7[8:1]*-3[8:1],1w5[8:1],1,2qq5[2:1]/8pp5[2:1],2/8,A1,,6<3[2:1],,3-1v8-6[2:1],,4,4v2<6[2:1],4h[4:1],,
{4}1p4[8:1],1,2-5[8:1]/7-2[8:1],2/7,8-4[8:1],8pp8[4:1]*qq8[4:1],8,,1<7-3<5[2:1],,5>3-7>1[2:1],,5-8>1-4[2:1]*-8>1-4[2:1],,,,
{4}8v5[4:1],5<8[4:1],8>4[4:1],D1/E1/B1/B8,5-1[2:1],E4/E5/B4/A4,A6/B6/E6/E7,,2qq5[2:1],,4<1[2:1],,3,3-1v8-6[2:1],3h[4:1],{8},
{8}5,{4}5>3[8:1]*-2[8:1],5<7[8:1]*-8[8:1],5-1[8:1],5,1xpp3[8:1]*qq7[8:1],1,8xqq8[8:1]/2xpp2[8:1],8/2,1xp5[4:1],5p1[4:1],1p5[4:1],5p1[4:1],Ch[4:1],,{12}4,,4,3,,3,
{4}2qq5[1:2],,,,D7/E7/B7/B6,,,,D3/E3/B3/B2,,D1/E1/B8/B1,,
{4}7-5[8:1]/1,7/1-3[8:1],1/8-6[8:1],8/2-4[8:1],5-1[8:1]/2,5/6-2[8:1],6/3-6[8:1],3/7-1[8:1],{12}7/3-5[8:1],,3,3,,,2/7-4[8:1],,,7/1-4[8:1],,1,1,,,3/6,4,5,4,5,3,6,2,7,
{4}1x/8x,1bpp1-5[8:3]*qq1-5[8:3]/8b,,Cf,8x/1x,8bqq7>8-4[8:3]*pp1<8-4[8:3]/1b,,Cf,
{4}4x/6x,4bpp5-1[8:3]/6bqq5-1[8:3],,Cf,5x/3x,5bqq3<4-8[8:3]/3bpp5>4-8[8:3],,Cf,
{4}1x/8x,1bpp2p5[8:3]*qq8q5[8:3]/8b,,Cf,8x/1x,8bqq6<7q4[8:3]*pp2<1p4[8:3]/1b,,Cf,
{4}4x/6x,4b-7<6p1[8:3]/6b-3<4q1[8:3],,Cf,5/3,5bqq3q8[8:3]/3bpp5p8[8:3],,Cf,
{4}6<1[4:1],1>4[4:1],4<7[4:1],7>2[4:1],4,4pp4qq4[2:1],4,A4,8<5[4:1],5-1[4:1],1>4[4:1],4q8[4:1],8q4[4:1],4q8[4:1],{8}Ch[4:1],,,
{8}5,5h[4:1],,4,4h[8:3],,,3,4,5/6,,{12}7,,7,8,,8,1,,1,{4}2b-5[8:1]/1b-6[8:1],2bqq5[2:3]/1bpp6>5[2:3],,,,,,,,
{4}A3,D3,D8,A7,E5/B5/E6/C,B3/B7,C/B1/E1/E2,
{4}3pp4q8b[1:3]/5qq4p8b[1:3],,,,,,,,,,,,,,A1/A2/A3/A4/A5/A6/A7/A8/B1/B2/B3/B4/B5/B6/B7/B8/Cf/D1/D2/D3/D4/D5/D6/D7/D8/E1/E2/E3/E4/E5/E6/E7/E8,,
{4}1p4[8:1],1,2-5[8:1]/7-2[8:1],2/7,8-4[8:1],8pp8[4:1]*qq8[4:1],8,,4-1<8b[8:1]/5-8b[8:1],,5-8>1b[8:1]/4-1b[8:1],,{12}4/5,4/5,4/5,{8}3/6,,1/8,A1/D1/A8/D2/D8/E1/E2/B1/B8/E8/A7/B7/C/B2/A2,,,
{4}8v5[4:1],5<8[4:1],8>4[4:1],D1/E1/B1/B8,5-1b[2:1],E4/E5/B4/A4,A6/B6/E6/E7,,2b-6[8:1]/4b<6[8:1],,2b<8[8:1]/4b-8[8:1],,3bw7[8:1]*-7[8:1],,{8}A1/A2/A3/A4/A5/A6/A7/A8/B1/B2/B3/B4/B5/B6/B7/B8/Cf/D1/D2/D3/D4/D5/D6/D7/D8/E1/E2/E3/E4/E5/E6/E7/E8,,,
{8}5,{4}5>3[8:1]*-2[8:1],5<7[8:1]*-8[8:1],5-1[8:1],5,1xpp3[8:1]*qq7[8:1],1,8xqq8[8:1]/2xpp2[8:1],8/2,1xp5[4:1],5p1[4:1],1p5[4:1],5p1[4:1],Ch[4:1],,{12}3,,2,1,2,1,
{4}2qq5[2:3]/8pp5[2:3],,,,,,,,B6/B7/E7/D7/B3/B4/E4/D4,,B8/B7/E8/D8/B2/B3/E3/D3,,
{8}8h[4:5]/2h[4:5],,5,,5,,5,,{12}5,,5,{4}5p1b[8:1]*q1b[8:1],,,
{8}1h[4:5]/7h[4:5],,4,,4,,4,,{12}4,,4,{4}4q8b[8:1]*p8b[8:1],,
{4}5h[8:7],8h[8:7]/2h[8:7],,,{8}4,4h[8:7],7h[4:3]/1h[4:3],,,,,,,,
{12}7h[1:2]/2h[1:2],,,4,,5,5,,4,{4}4,5h[4:1],,4h[4:1],,5bw1[8:1]*-1b[8:1],
