&title=GETCHA!
&artist=Giga & KIRA
&first=0
&des=1111
&lv_5=13+
&inote_5=(132)
{1},
{1}Cf/6x<3b[4:2],
{1}5xpp4[4:2]/4x,
{8}3x-8>1-6b[4:2]/6x,,,E5h[8:3],,,,,
{8}4xpp5[4:1]/5x,,,8x>3>8b[4:1],8x,,,,
{16}6x/5xh[16:3],,,7,5,,4,,3/4h[16:3],,,2,4,,5,,
{16}7xh[16:3]/5x,,,8,6,,45,,2h[16:3]/4,,,1,3,,45,,
{16}4xh[16:1],8,5h[16:1],7,8h[16:1],6,1h[16:1],5,2h[16:1],4,3h[16:1],1,4qq8[8:3],8,5h[16:1],7,
{4},,1xbs5[8:1]*v4[8:1],,
{8}6x/3x,2,41,5,63,{16}7<4[8:1],5,,5,7,,
{8}2h[8:1],4,5h[8:1]/4,3,6p1[8:1]/5>2[8:1],7,,,
{8}8x/3x,2,61,7,83,{16}2>5[8:1],1,,1,2,,
{8}7h[8:1],5,4h[8:1]/5,6,3/4w8[8:1],52,,,
{16}6x-1[8:1]/2x,,,5,6,,3,,2h[8:1]/1,,5,,6h[8:1]/4,,2,,
{16}7/3-8[8:1],,,4,3,,6,,7h[8:1]/8,,4,,3h[8:1]/5,,7,,
{8}2x/1xh[8:1],3,5/4h[8:1],6,8h[8:1]/7,6,5h[8:1]/4,3,
{24}2x,3x,4x,8h[8:1],,,1x,2x,3x,7h[8:1],,,8x,1x,2x,{8}6h[96:1],5h[96:1],4h[96:1],
{8}3hb[8:3]/5b<4[2:1],,,,C,,,3/5<8[8:1],
{8},,2>5[8:1],,C,{24},,6x,{16},6x,5x,,
{8}4>5[2:1]/6h[8:3],,,,C,,,6/4>1[8:1],
{8},,7<4[8:1],,C,{24},,3x,{16},3x,4x,,
{16}3/5-8[8:1],,,4,5,,1,,3-1b[8:1],,2,4,3,,5,,
{16}6/4-1[8:1],,,5,4,,8,,6-8b[8:1],,7,5,6,,4,,
{16}4h[16:1],8,5h[16:1],7,8h[16:1],6,1h[16:1],5,2h[16:1],4,3h[16:1],1,4h[16:1],8,5h[16:1],7,
{8}E3,A4,C,A5,E7h[16:1],{32}3x,4x,5x,,{16}8xw4b[8:1],1x,7x,,
{8}8b,,2/5-1b[8:1],8,5/7<4[8:1],,7/8,3,
{32}21,3,4,5,6,7,8,1,{8}26,8<5[8:1]/4>1[8:1],,4v7[8:1]/8v3[8:1],,4b/8b,
{8},1h[8:1],5,46,8h[8:1],4<7[8:1],35,1>4[8:1],
{8},1q5[8:1]*p5[8:1],6,Cf,,3x/7x,{16}5xw1b[8:1],4x,,,
{8}5b,,7/4-8b[8:1],1,4/2>5[8:1],,2/1,6,
{32}78,6,5,4,3,2,1,8,{8}73,1-4[8:1]/5-8[8:1],,5V31[8:1]/1,,7/5,
{16}8xb,,7,5,6,,45,,1xb/2xb,,2,4,3,,45,,
{24}8xb/7xb,6x,5x,E4,,,1xb/2xb,3x,4x,E6,,,8xb/7xb,6x,5x,E4,,,{4}2h[8:1]/1h[8:1],
{4}2h[8:1]/1h[8:1],1h[8:1]/2h[8:1],2/1s5[8:1]*v4[8:1],,
{12}3b/6b,,,1h[12:1],5h[12:1],3h[12:1],7-3-5[12:2],,1,1,,,
{12}7h[12:1],5h[12:1],6h[12:1],1p4[8:1],5h[12:1],3h[12:1],1,,,{40}A2,D3,A3,D4,A4,A8,D8,A7,D7,A6,
{12}1b,,7,7h[12:1],4h[12:1],5h[12:1],2-6-4[12:2],,8,8,,,
{12}2h[12:1],6h[12:1],4h[12:1],7p2[8:1],1h[12:1],5h[12:1],7,,,1>4[8:1]/8<5[8:1],,,
{12}1b/8b,,,1h[12:1],6h[12:1],4h[12:1],7-3-5[12:2],,1,1,,,
{12}6h[12:1],2h[12:1],8h[12:1],4q1[8:1],6h[12:1],2h[12:1],4,,,{40}A7,D7,A6,D6,A5,A1,D2,A2,D3,A3,
{4}4x-8[8:1]/7x-5[8:1],4x/7x,4x-8[8:1]/1x-3[8:1],4x/1x,
{4}A7/E7/E6/A5,A8/B8/C/B4/A4,A1/E2/E3/A3,8b,
{32}2xb<7[8:2]/6xb,3xb/5xb,,,,,,,{8},6,6h[8:3],,,5h[4:1],
{8},4,4h[4:1],,3-8[8:1]*v2[8:1],3,,,
{32}7xbv6-4[8:3]/3xb,6xb/4xb,,,,,,,{8},3,3h[8:3],,,4h[4:1],
{8},5x-8[8:1]*q2[8:1],5x,,,{16}2hb[8:1]/6b,,,4b/8hb[8:1],,,
{32}2xbqq3[8:3]/6xb,3xb/5xb,,,,,,,{8},5,5xh[8:3],,,4h[4:1],
{8},3,3h[4:1],,2xv3[8:1]*-8[8:1],2,,,
{32}7xbpp6[8:3]/3xb,6xb/4xb,,,,,,,{8},4,4xh[8:3],,,5,
{4}6h[8:1]/5h[8:1],7h[8:1]/6h[8:1],{8}87,{24}1x,2x,3x,{4}8x-4[8:1]/4x,
{16}1b,,3,3,,5,4,,3-6[8:1]/4,,34,,,,,,
{16}7,7,,4,5,,6,,78,,78,,1-5[8:1]/6,,,,
{16}8b,,6,,57,,4,,57,,6,5,7,5,6,4,
{8}5,3,24,5,24,B6/E7/E6,B3/E4/E3,,
{16}1b,8,2,,34,,45,,7,8,6,1,5,,34,,
{16}2,1,3,8,4,5,3,6,8,7,1,6,2,,35,,
{16}4b,7,4,7,1,6,1,6,2,4,2,4,3,1,3,1,
{16}4h[16:1],8,5h[16:1],7,8h[16:1],6,1h[16:1],5,2h[16:1],4,3h[16:1],1,4h[16:1],8,5h[16:1],7,
{1}Ch[8:11],
{4},,{8},{24}6,5,4,3x<6b[8:1],,,,,,
{8}3b/8b,7h[8:1],5,61,2h[8:1],4>1[8:1],83,7<4[8:1],
{8},7/1q5[8:1]*p5[8:1],3,Cf,,3x/7x,{16}5xw1b[8:1],4x,,,
{8}5b,,3/8>3b[8:1],5,8p3[8:1]/7<4[8:1],,8/7,,
{32}12,3,4,5,6,7,8,1,{8}26,4v1[8:1]/8v5[8:1],,4V68[8:1]/8,,34,
{16}1xb,,2,4,3,,54,,1xb/7xb,,7,5,6,,54,,
{24}8xb/2xb,3x,4x,E3,,,1xb/7xb,6x,5x,E7,,,8xb/2xb,3x,4x,E3,,,{16}8xw4[8:1],1x,7x,,
{8}8b,,26,4>1[8:1]/8<5[8:1],,8/4-8-6[16:3],,4xb-8-2[16:3],
{8},4xb>6b[32:7],,A4f/E4/E5,,4x,{16}5xw1[8:1],4x,,,
{8}5b,,73,5<8[8:1]/1>4[8:1],,5/1-5-8[16:3],,1xb-5-2[16:3],
{8},1xb>7b[32:7],,A1f/E1/E2,,1x,{16}8xw4b[8:1],1x,,,
{8}8b,,1<6b[8:1]/6,4,1q6[8:1]/2>5[8:1],,12,,
{32}87,6,5,4,3,2,1,8,{8}73,5v8[8:1]/1v4[8:1],,5V31[8:1]/1,,65,
{16}8xb,,7,5,6,,45,,1xb/2xb,,2,4,3,,45,,
{24}7x,6x,5x,E2,,,7x,6x,5x,E3,,,7x,6x,5x,E4,,,A8f/E1/E8,,,,,,
{16}5xb-2[8:1]/6xb,,,7,5,,7,,6-1[8:1],,,4,6,,4,,
{16}3xb-8[8:1],,,5,3,,5,,4-7[12:1],,,2,4,,2,,
{16}7xb-4[8:1],,,3,7,,3,,8-3[8:1],,,4,8,,4,,
{16}1xb-6[8:1],,,4,1,,4,,2-5[12:1],,A1f/E1/E2,,,,,,
{16}6x/5xh[16:3],,,7,5,,45,,3/4h[16:3],,,2,4,,45,,
{16}7xh[16:3]/5x,,,8,6,,45,,2h[16:3]/4,,,1,3,,45,,
{16}4xh[16:1],8,5h[16:1],7,8h[16:1],6,1h[16:1],5,2h[16:1],4,3h[16:1],1,4h[16:1],8,5h[16:1],7,
{1}6xqq4<2b[16:7],
&inote_6=
