&title=時を刻む唄
&artist=麻枝准
&first=0.57000005
&des=トモヤ
&lv_5=13+
&inote_5=(140)
{1},
{8}
6<3>6[8:10],,,B4h[8:2],,,B6h[8:2],,,B2h[8:2],,,1h[8:2],,5h[8:2],,
3>6<3[8:10],,,B5h[8:2],,,B3h[8:2],,,B7h[8:2],,,8h[8:2],,3,,
Ch[8:2]/4h[8:1],,,Ch[8:2]/3h[8:1],,,Ch[8:2]/2h[8:1],,,Ch[8:2]/1h[8:1],,
,2/8,,7/3,,
Ch[8:2]/5h[8:1],,,Ch[8:2]/6h[8:1],,,
8b>7[8:8],8bpp4[8:7],,,,,,,
,,,,
(139.1)
{8},6v1[8:1],6,3^5[8:1],3,1p4[4:1],,4pp5[4:1],3,2,1,8-2[8:1],,3-5[8:1],,6-8[8:1],,1-3[8:1],,4-6[8:1],,7p1b[4:1],,8,8h[8:2],,,
2^5[8:1],2,7-1[12:1],7,5p1[4:1],,1q7[4:1],8,7,6,5-2[8:1],,6-2[8:1],,7-2[8:1],,6>2[4:1],,
2,1p4b[16:3],8^5b[16:3],,,,,,2h[8:2],1,
8<3[16:4],,B5/E6/B6,,
7>4[16:4],,B2/E2/B1,,
,,
8h[8:2],1,2<6[8:2],
,B7/B8,,1<5[8:2],,B7/B6,,,,
3^8[4:1],3,8<2[2:1],,C,,2^7[4:1],,C,,,,
6^8[4:1],6,8>4[2:1],,C,,4<2[128:95],,C,,,,
3xpp7[8:8],3xh[8:9],,,,,,,,,,,
8^5[8:1]/5^2[8:1],,8-2b[12:1]/5,,
(139)
{8}7/8b,
4-6b[12:1],4/6,4b/2,
8-2b[12:1],2/8,6-8[12:1]/8b,
5,3-7[8:1]/6,
{16}2,1,
{8}3,4h[8:2],
{16}7,8,1,2,3/8^3[8:1],,5/4,,
{8}8b/6,7qq4b[8:3],1/5,7b/3,2-8[8:1],3-7[8:1],2b,3b,
4-8[8:1],
{16}6,2,4,,5h[8:2],,2,1,8,7,6/1-7b[12:1],,3/4,,
{8}
2/1b,
5-3b[12:1],5/3,5b/7,
1-7b[12:1],7/1,3-7[12:1]/1b,
{16}2,,3/5,,6,8,4h[8:1],,3,1,5h[8:1],,7,1,5-3[8:1],,3,,
{8}5b,2-6[8:1],6,
2b,7-1[8:1],1,7b<2[16:4]*p2[16:4],,
{16},,,,,,,,
{8}
1^4[8:1]/4^7[8:1],,1-6b[8:1]/4,,3/1b,
5-2b[8:1],2/5,8/5b,
1-6b[8:1],6/1,4-2[12:1]/1b,5,
7/4-8[8:1],
{16}6,1,
{8}4,5h[8:2],
{16}1,2,3,4,5/8^5[8:1],,3/2,,
{8}8b/1,2-4-1-5b[8:3],7/4,2b/6,7^1[8:1],6q2[8:1],7b,6b,
5-1[8:1],
{16}3,7,5,,4h[8:2],,8,7,6,5,
{8}
8-3b[8:1]/4,1/2,6/8b,
4-7b[8:1],7/4,1/4b,
8-3b[8:1],3/8,5-8[12:1]/8b,4,
1/5,
{16}3,1,5h[8:1],,6,8,4h[8:1],,1,7,3-5[8:1],,5,,
{8}3b,2-6[8:1],6,
2b,1-7[8:1],7,1b<2[8:3],,Cf,,,,8x-4[8:1],,,
{8},
4/E3h[8:4],5,6,7,8,
5/E7h[8:4],4,3,2,1,
5/B2h[8:4],6,7,8,1,
4/B7h[8:4],3,2,1,8,
Ch[8:4]/6,7,8,1,2,
Ch[8:4]/3,2,1,8,7,
Ch[8:4]/6,7,8,1,2,
1/3,2/8,1/7-3[8:1],6/8,5/7,,
2pp2[4:1]/4,5,6,7,8,
7qq7[4:1]/5,4,3,2,1,
2p4[4:1]/5,6,7,8,1,
7q5[4:1]/4,3,2,1,8,
2p5[8:2]/6,7,8,1,2,
7q4[8:2]/3,2,1,8,7,
6/2q5[8:3],7,8,1,2,3,,,,,,,,,,,
E
