&title=……已至
&artist=塞壬唱片MSR
&first=0.059999995
&des=S743-90E2
&lv_5=13+
&inote_5=(146)
{1},,,,
{1}5h[2:3],,5h[2:3]/Cf,
{4},,1V35V71[4:4],,
{4},,,,
{8}5bV71V35V71[4:6],,,,,,,,
{1},
{8},,E5,,,E7,,,
{8}E1,,,E3,,,C,,
{8},4V68V24V68[4:6],,,,,,,
{1},
{8},,E1,,,E5,,,
{8}E7,,,E3,,,,,
{1}3V17[4:2]/7V53V17[4:4],
{8},,2,3,,4,,5/6h[4:6],
{8},,E5,,,E3,,,
{8}E1,,,E7,,,,,
{1}2V46V82[4:4]/6-8[4:1],
{8},,7,6,,5,,3h[8:9]/4,
{8},,E1,,,C,,,
{8}E5,,,,2>6[8:1],,{32}E3,E4,E5,E6,,,,,
{16}1v4[8:1]/7h[4:1],,,,1,,8qq6[8:1],,,,8,,2h[4:1],,,,
{16}6h[4:1],,,,C,,,,4,,35,,2>4[8:1]/6<8[8:1],,,,
{16}26,,,,1/5h[4:1],,,,1-3[8:1],,3-7-5[4:1],,1-5[8:1],,,,
{16},,,,3/7h[4:1],,,,2h[8:1],,6,6,4-8[8:1],,,,
{16}34,,,,17,,2h[4:1],,,,5,,4/6>5-2[8:1],,7,,
{16}68,,,,7,,16,,2<1-6[8:1],,,,24,,,,
{16}5,,3,3,6,,47,,6,6,5,,3,4,2,5,
{16}1,2,3,4,1,8,7,6,35,,14,,28,,46,,
{16}7h[4:1],,8h[8:1],,,,4h[4:1],,3h[8:1],,,,2h[4:1],,1h[8:1],,
{16},,5h[4:1],,6h[8:1],,,,4>3-1[8:1]/8<7-5[8:1],,,,,,,,
{16}8h[4:1],,7h[8:1],,,,3h[4:1],,4h[8:1],,,,2h[4:1],,1h[8:1],,
{16},,5h[4:1],,6h[8:1],,,,1xh[32:1],,2xh[32:1]/8xh[32:1],,3xh[32:1]/7xh[32:1],,4xh[32:1]/6xh[32:1],,
{16}3h[4:1],,4h[8:1],,,,2h[4:1],,1h[8:1],,,,8h[4:1],,7h[8:1],,
{16},,5h[4:1],,6h[8:1],,,,7<6-4[8:1]/3>2-8[8:1],,,,,,,,
{16}6h[4:1],,5h[8:1],,,,7h[4:1],,8h[8:1],,,,1h[4:1],,2h[8:1],,
{16},,4h[4:1],,3h[8:1],,,,1-5[12:1],,,,1>1[4:1],,,,
{32}E2,E3,E4,E5,E6,E7,E8,E1,Cfh[4:3],,,,,,,,{16},,,,,,,,
{16}3b,,4,,25,,6,5,6,5,7,,1pp3[8:1],,28,,
{16},,7h[4:1],,,,5,,46,,3,,2/5v6[8:1],,,,
{16}1,,2,,3,,4,5,3,,1,8,2,7,3,,
{16}5/6>3[8:1],,,,1-4[8:1],,1,,,,6,,7-3[8:1],,,,
{16}7,,8,,16,,2,8,3V52[6:1],7,2,,13,,,,
{16}1,,8,,78,,7,1,6V47[6:1],2,7,,46,,,,
{16}5x,,4,,34,,5,3,6V84[16:3],2,7,,26,,,,
{16}3,3,4,4,5,5,6,6,8v3[8:1],7,4,5,8b,,,,
{16}6,,6,,57,,7,5,6,4,8,,1v3[8:1],,27,,
{16},,6h[4:1],,,,2,,35,,4,,5-3>2[8:1]/6,,,,
{16}8,,7,,16,,3,4,2,,7,1,7,2,6,,
{16}3/4-7[8:1],,,,2,,1q3[4:1],,,,8,,7,,6,,
{16}5h[4:1],,3,,2,,1,6,2-6-8[6:1],7,3,,24,,,,
{16}3,,4,,56,,7,3,8-4-2[6:1],4,1,,58,,,,
{16}8,,7,,64,,4,6,3-7-5[6:1],5,2,,13,,,,
{16}3,4,3,4,2,5,1,6,8,1,2,3,5-2[8:1],6,7,8,
{16}15``E5f,,,,,,,,,,,,4h[8:5]/5h[8:5],,,,
{16},,,,,,,,,,,,,,,,
{16}Ch[4:14]/B2,,,,,,,,E4,,,,D3,,,,
{16},,,,A4,,,,,,,,,,,,
{16},,,,,,,,A3,,E3,,E2,,,,
{4},,{16}1>4[73#12:1],,,,,,6,,
{16}7p3[73#12:1],,,,,,1,,2q6[73#12:1],,,,,,7,,
{16}8<5[73#12:1],,,,,,,,8V26-4[73#4:1]/3,,,,,,2,,
{16}1,,,,,,,,2>7[73#8:1],,,,,,,,
{16}Ch[4:1],,,,,,,,6-3[73#12:1],,,,,,3,,
{16}2-7b[73#12:1],,,,,,5,,6-1[73#12:1],,,,,,1,,
{16}2-5b[73#12:1],,,,,,,,8v1-3b[73#6:1]*v7-5[73#6:1]/2,,,,,,8,,
{16}8,,,,,,,,2>7[73#8:1],,,,,,,,
{16}Ch[4:1],,,,,,,,8v6[73#12:1],,,,,,4,,
{16}3v1[73#12:1],,,,,,6,,5V74[73#8:1],,,,,,3,,
{16}4V25[73#8:1],,,,,,,,7q6[73#8:1],,,,,,3,,
{16}3q2[73#8:1],,,,,,,,3/7<2[73#8:1],,,,,,,,
{16}Ch[4:1],,,,,,,,1z5[73#8:1],,,,,,2,,
{16}3z7[73#8:1],,,,,,1,,2s6[73#8:1],,,,,,1,,
{16}8s4[73#8:1],,,,,,,,18,,,,,,3,,
{16}3-6>3[73#6:1],,,,26,,,,3/7,,,,8,,7,,
{16}6<2[8:1]/Ch[4:1],,,,{32}E7,E8,E1,E2,{16},,3x/5x,,,,2-4[12:1]/8,,1,8,
{16}2,,6,,5-1[8:1],4,6,,7/5,,,,8,1,7,1,
{16}8h[8:1],,3,3,4>7[4:1],,5,,46,,,,6,,4,5,
{16}46,,2,1,28,,3,,4<1[4:1],,,,43,,,,
{16}2,,2,,3-6[8:1]/4h[4:1],,,,3,,,,18,,7,1,
{16}5,,3,4,3<6[8:1],5,2,,3,,,,48,,3,4,
{16}3,,6,5,6h[8:1],,4,,12,,,,38,,6,5,
{16}47,,35,,3,4,2,5,8x>2-5[6:1],,,,78,,,,
{16}6,,35,,3,4,35,,16,,7,8,7,8,7,,
{16}5,6,47,,2,1,3,8,5-1[12:1],6,4,5,2,,,,
{16}28,,7-3[12:1],5,6,,4,,1,1,8,2,4,3,1h[8:1],,
{16}8,7,4,5,2h[8:1],,3,2,7-3[12:1],8,6,1,7,,,,
{16}25,,3,,6,5,8,,1,7,3,4,2,6,8,,
{16}6,5,6,7,6,,1,8,2,,34,,1h[8:1],,2,1,
{16}4h[8:1],,8,6,C,2,4,,7,5,C,1,3,,35,,
{16}4,5,4,5,3,6,3,6,3,7,2,6,1,5,8,4,
{16}37,48,15,26,{32}37,4,5,6,7,8,1,2,{16}3b-7b[36.5#48:1]/7b-3b[36.5#48:1],,,,,,,,
{16},,,,,,,,3b/7b`Cf,,,,,,,,
{16},,56,,7h[4:1],,,,2q3[4:1],,,,26,,,,
{16}5,,6,,3>1[12:1]/7<5[12:1],,,,37,,,,4h[4:1]/8-4[8:1],,,,
{16}8,,6,,7h[4:1],,,,B4,,5,5,4h[4:1]/6,,,,
{16}B1,,28,,3<5[12:1]/7>1[12:1],,,,37,,,,46,,3h[4:1]/7,,
{16},,6,,25,,1,,7v4[8:1]/8,,,,7,,1,,
{16}2>5[8:1]/6,,,,8,,,,27,,1,8,1,,47,,
{16}6,5,6,,47,,3,,2,3,4,5,8,7,6,5,
{16}24,,36,,15,,28,,7h[4:1],,5h[8:1],,,,3h[4:1],,
{16}5h[8:1],,,,2h[4:1],,8h[8:1],,,,6h[4:1],,8h[8:1],,,,
{16}3>2-7[8:1]/7<6-3[8:1],,,,,,,,4h[4:1],,2h[8:1],,,,5h[4:1],,
{16}7h[8:1],,,,1h[4:1],,3h[8:1],,,,8h[4:1],,6h[8:1],,,,
{16}8xh[16:1],,1xh[16:1]/7xh[16:1],,2xh[16:1]/6xh[16:1],,3xh[16:1]/5xh[16:1],,4h[4:1],,6h[8:1],,,,8h[4:1],,
{16}2h[8:1],,,,3h[4:1],,5h[8:1],,,,7h[4:1],,1h[8:1],,,,
{16}2-5<6[8:1]/6-1>2[8:1],,,,,,,,8h[4:1],,4h[8:1],,,,2h[4:1],,
{16}6h[8:1],,,,7h[4:1],,3h[8:1],,,,1h[4:1],,5h[8:1],,,,
{16}1-5[12:1],,,,1<1[4:1],,,,
{32}E1,E8,E7,E6,E5,E4,E3,E2,{4}C,
