&title=ヒュブリスの頂に聳えるのは
&artist=qfeileadh feat. のあ
&first=0
&des=Azuki
&wholebpm=158
&lv_5=13
&inote_5=(158)
{1},
{16}1,8,2h[8:1]/7h[8:1],,
,1h[8:1]/2h[8:1],,,
1h[8:1]/8h[8:1],,,7h[8:1]/8h[8:1],
,,61,,
{24}1,2,3,7,6,5,
{16}3h[8:1]/4h[8:1],,,4h[8:1]/5h[8:1],
,,5h[8:1]/6h[8:1],,
,45,,,
{16}4,5,4,6,
,46,,4,
35,,2,,
17,,6,54,
{8},2/4,
{24}15,8,7,6,5,4,
3,2,1,8,7,6,
{16}51,48,37,26,
{16}1/5,4/8,,,8bV64[8:12]*V24[8:12],,,,,,,,,,,,
{16},,,,,,,,,,,,,,,,
{24},,,,,,
4bv7[8:8]*v1[8:8],,,,,,
,,,,,,
,,,,,,
{8},,,,,,71,{16},1,
{16}8,,2,,27,,,,26,,,,25,,,,
{8}34,,2,4,2,1,2,5,2,1,{16}2h[8:1],,4h[8:1],,2h[8:1],,1h[8:1],,2h[8:1],,5h[8:1],,2h[8:1],,1h[8:1],,2,4,2,4,3,4,3,4,2,1,2,1,
{16}4,5b,,,{16}2,1,3,4,
,2,1,3,5,
,2,1,
{16}4,6<4[16:23],,,5h[8:14],,,,,,,,,,,,
{8},,,,,,,,
{8}4pp8[8:6],,3h[4:3],,,,,,
{24},,,,,,3b/7,,,,1/6b,,,,,2b/8,,,,,,4,,,
{24},35,,,,,2h[24:18]/6pp5[8:4],,,,,,,,,,,,,,,,,,
{24},,,,,,8h[24:9]/4q5[8:4],,,,,,,,,,,,,,,1,,,
{24},8,,
,,,{16}7>2[8:1],,,5,
7,,4,,
,,3,,
{16}4,,3<6[8:1],,,,
7,
,7h[16:4],,,
,5,7,,8,
{16}6,1,5,,
24,,3,,
6,,5,,
57,,6,,
{8}3,4,14,2,5,{16}2,4,2h[16:2],,5,3h[16:2],
{16},6,4h[16:2],,7,,5h[16:2],,6,5,6,,71,,2,,
{16}31,,8,,1b-5[8:1],,,7b,1,,8b,,
{24},,,57,,,
{24},24,,,,,
{16}3/6p3[8:3],,,,
6b/1,,,,
,,8,,
{16}8,,1,,2-7[8:1],,,4,2,,5h[16:4],,,,,,
{8}6-3[8:1],4h[16:10],6,,,,,,
{8},,{12}25,3,4,
85,7,6,15,2,3,47,6,5,
{8}3q5[8:4]/4,,,,,1,8,7,
{16}6,,,5,6,,6h[16:4],,,,4,,4,,2,5,
{16}2h[16:3],,,4h[16:3],,,3h[16:2],,1,,2,,,,4,,
{16}4,,,2h[16:7],,,1,,8,,7,,5,,6,,
{8}6p4[8:3],,,,,8,1,2,
{16}3,,,4,3,,3h[16:4],,,,5,,5,,1,8,
{16}1,,,36,
,,27,,
5p1[8:1]/4q8[8:1],,36,,
{16},,,,
{16}1,8,1,8,1,8,1,8,
2,4,1,8,5>6[8:3],7,4,6,
{4},,{24},,,4,5,4,
{16}6,,,,2,1,4,6,,2,1<6[8:1],4,6<3[8:2],,,,
{16},,,,7bp3[8:1],,,4,7,,2,,1q5[8:1],,,4,
{16}1,,6,,7>2[16:3],,,2>5[16:3],,,5<8[16:3],,
,,1,,
{16}2,,3,,4-8[8:1],,,8,4,,7-3[8:1],,1,,7,,
{16}2pp6[8:4],,5,,2,,6,,7,,8,,1,8,7,6,
{16}54,3,2,1,8p4[8:1],,,5,8,,3,,2q6[8:1],,,5,
{16}2,,7,,8>3[16:3],,,3<6[16:3],,,6<1[16:3],,
,,2,,
{16}3,,4,,5b>1[8:1]/8b,,,7b,5,,6b,,,,1b/4b<7[8:1],,
{16}2,,3b,,,,4,3,2,1,
4,5,6,7,
18,2,
{16}3,4,
8,7,6/5-1[8:1],,,2,5,,3,,4h[16:6],,1,,
{16}8,,7,,
2-4[8:1],,,1,
2,,
1,,
{24}8,7,6,54,3,2,
{16}81,,,,
{24}57,,,,43,,
,,17,,,,
56,,,,24,,
,,18,,,,{16}4,3,2,1,5,6,7,8,2,3,4,5,
{16}8,7,6,5,3b,4,2,5,1,6,8,7,
8,1,2,3,
{16}5,6,7,8,
2,1,3,8,
4,7,5,6,
5,4,3,2,
{16}5,6,7,8,1,8,2,7,1,8,2,7,3,6,4-8[8:1],5,
{16}3,6,4bqq3[8:5]*pp5[8:5],,,,,,,,,,,,,,
{16},,,,3h[8:8]/5,,,,,,,,,,,5,
{16},,,,8h[8:9],,3,,,,,,,,,4,
{16},,,,,,4h[16:7],,,,,7,,7<5[16:1],,,
{16},,1b,2,3,8,7,6,2,3,4,7,6,5,3b,4,
{16}3,6b,5,6,1b,2,3,7b,6,5,2b,3,4,8b,7,6,
{16}4b,3,2,7b,6,5,3b,2,1,6b,5,4,2b,1,8,6b,
{16}5,4,3b/7h[16:6],,,,,,,,,,{24}8,1,2,3-7[8:1]/7-3[8:1],,46,
{16},,3bqq8[16:10]/7bqq6[16:5],,,,,,,,,,,,{24}7,6,5,
{16}4,,,,
{12}8b/4b,8b/4b,8b/4b,
2bpp4[6:1]/6bpp8[6:1],2b/6b,2b/6b<6[79#4:8],,,,
{1},,,,
{8},,7h[8:4],,6,,3h[8:4],,
{8}2,,5h[8:4],,4,,1h[8:2],,
{8}8-5[16:1],,8b/4-1[45.14#32:1]*-1[45.14#32:1],,,,,,
{16},,4b,,
{32},,,,8,7,6,
5,4,3,2,1,8,
7,6,5,4,3,2,1,8,7,6,5,
{16}4b,,,,7/8-4[8:1],
,,3,8,
,2,,1h[16:6],,4,,
{16}5,,6,,3-1[8:1],,,4,3,,4,,
{24}5,6,7,81,2,3,
{16}45,,,,
{24}75,,,,12,,
,,46,,,,
87,,,,42,,
{24},,65,,,,{16}1,2,3,4,
1,8,7,6,
3,2,1,8,
{16}5,6,7,8,2b,1,3,8,4,7,5,6,
5,4,3,2,
{16}8,7,6,5,
3,4,2,5,
1,6,8,7,
8,1,2,3,
{16}8,7,6,5,3,4,3,4,2,5,2,5,1,8,1,8,
{16}1,8,2h[16:4]/7h[16:4],,,,,,45,,45,,18,,1-5[8:1]/8-4[8:1],,
{8}27,1/8,,,2b>5[8:1]/7b,,2/7q3[8:1],8,
{16}4-8[8:1]/7,,5,,6-1[8:1]/4,,7,,2-6[8:1]/6,,3,,2/8-4[8:1]*-5[8:1],,7,,
{16}8,,,,
3b-8[8:1]/6b,,4,,3/6p2[8:1],,5,,1>4[8:1]/6,,8,,
{16}7-1[8:1]/1,,6,,7/3<6[8:1],,4,,3/8,,7,,{24}7,6,7,6,7,6,
{16}8b-3[8:1],,,,8b/5b-8[8:1],,4,,
2-5[8:1]/5,,1,,2/7-2[8:1],,6,,
{16}4-7[8:1]/7,,3,,4/1-4[8:1],,8,,6-1[8:1]/1,,5,,6/3-6[8:1],,4,,
{16}8,,1,,
{24}8,7,6,5,4,3,
2,1,8,7,6,5,
41,2,3,4,5,6,
{24}7,8,1,2,3,4,
{16}8,7,6,5,3,2,1,8,
{32}6,5,4,3,2,1,8,7,
{32}6,5,4b/3,,
{16},,
{16}3,4,3,4,
2h[16:2],,1,,
6,5,6,5,
{16}7h[16:2],,8,,
1-6[8:1],,,2,
1,,3,,
3<6[16:2],,2,,
{16}7/3,,8,,
7,5,6,5,
7h[8:1],,1,,
2,4,3,4,
{16}2h[8:1],,8,,8-3[8:1],,,7,8,,6,,6q3[8:1],,5,,
{16}63,,2,,1,4,3,4,1h[8:1],,8,,8,5,6,5,
{16}8h[8:1],,2,,2-5[8:1],,,6,2,,7,,8,4,8,4,
{16}8bp5[8:4]*q3[8:4],,,,,,,,,,,,,,,3/5h[16:7],
{16},,,,1,,1h[16:9],,,,,,,,,,
{16}8,1,8,1,
8,1,7h[8:1]/2h[8:1],,
,5h[8:1]/6h[8:1],,,
5h[8:1]/4h[8:1],,,3h[8:1]/4h[8:1],
{16},,7h[8:1]/8h[8:1],,
,8h[8:1]/1h[8:1],,,
1h[8:1]/2h[8:1],,,34,
,75,,12,
{16},35,,6,4,5,4,6,,17,,2,28,,3,,
{16}46,,7,18,
,,75,,
{24}84,1,2,3,4,5,
6,7,8,1,2,3,
{16}48,51,62,73,
{16}8/4,1/5,
{32},,,,3bpp1[4:11]/7bp6[4:11],,,,,,,,,,,,,,
