&title=Evans
&artist=DJ YOSHITAKA
&first=0.35
&des=DJ Augustine &des 5=DJ Augustine
&lv_5=14
&inote_5=(185)
{32},,,,,,,,,,,,,,,,A1,A2,A3,A4,A5,A6,A7,A8,E1,D2,E3,D4,E5,D6,E7,D8,
{8}1bxs5[2:1]/8bxz4[2:1],,,,,,,,3,2bh[4:1]/E6f,,,8b/E4f,,1b/E5f,,7bh[1:1]/Cf,,,,,,,,
{24},,,,,,,,,,,,4h[4:1],,,8,7,6,5h[32:7],,,1,2,3,
{8}4/B8f,,5/B1f,,,,,,3,2/D7/E7f,,,7/D3/E3f,,1/Cf,,
{32}8h[8:1]/A2f,E3,E4,A4,,,,,,,,,,,,,1h[8:1]/A7f,E7,E6,A5,,,,,,,,,,,,,
{8}8-4[8:1]/2,6/4-8[8:1],,,
{16}1b,,,2b/4,,,5/7b,,
{16}4z8[8:1]/5s1[8:1],,,,E5f/E4/E6,,,,2-5[8:1],,7,,2,,1,,4-1[8:1],,7,,4,,5,,2-5[8:1],2,7,,2,,1,,
{16}7-4[8:1],,2,,7,,8,,5-8[8:1],5,2,,5,,4,,1-5[8:1]/7,,3/5-1[8:1],,,,,,
{32}8,,,,7x,6,5,4,3,,,,2x,3,4,5,
{16}6w2[8:1],,,,B6f/E6/E7,,,,8-4[8:1],,4,,8w4[8:1],,,,B8f/E8/E1,,,,,,,,1-5[8:1],,5,,1w5[8:1],,,,
{4}B1f/E2/E1,8w4[8:1],B8f/E8/E1,2h[4:1],
{32}7b/E7,B6,B5,E5,1b/E2,B2,B3,E4,8h[4:1],,,,,,,,1,,,,2x,3,4,5,6,,,,7x,6,5,4,
{4}3pp6[2:3],,,,,,,,
{8}5h[16:3]/7h[4:3],,,4h[16:3],,,3,5,
{8}4h[16:3]/2h[4:3],,,5h[16:3],,,6,4,
{8}5h[16:3]/6h[4:3],,,8h[16:3],,,2,5,
{8}4h[16:3]/3h[4:3],,,1h[16:3],,,7,
{16}3,4,
{16}5h[8:3]/7,,,6,,,7h[8:3],,,6,,,4,,3,,
{16}4h[8:3]/2,,,3,,,2h[8:3],,,3,,,5,,6,,
{16}1/7h[8:3],,,8,,,2h[8:3],,,1,,,8,,1,,
{16}3h[16:3],,,4h[16:3],,,5h[16:3],,,6h[16:3],,,7,,8,,
{16}2/1<6[8:1],{8},{16}3,{8}1,4>1[8:1],{16},5,{8}4,6,8,
{16}1/7<4[8:1],{8},{16}3,{8}7,2<7[8:1],{16},4,{8}2,5,6,
{16}7/5>2[8:1],{8},{16}1,{8}5,8<5[8:1],{16},3,{8}8,2,4,
{16}5/3>8[8:1],{8},{16}7,{8}3,6>3[8:1],{16},1,{8}6,2,{16}5,6,
7/8>3[8:1],{8},{16}6,{8}8,5<8[8:1],{16},4,{8}5,3,1,
{16}8/2>5[8:1],{8},{16}6,{8}2,7>2[8:1],{16},5,{8}7,4,3,
{16}2/4<7[8:1],{8},{16}8,{8}4,1>4[8:1],{16}8,8,{8}1,{16}7,6,{8}5,
{16}4,5,4,5,4,5,4,5,{24}4h[4:1],,,8,7,6,5h[4:1],,,1,2,3,
{16}4h[8:1],,,,4h[8:1]/7,,,,1-5-7[4:1]/4h[8:1],,,,1/4,,4,3,2h[8:1],,,,2h[8:1]/8,,,,2V48[4:1]/4,,,,2/8,,7,6,
{16}5h[8:1],,,,5h[8:1]/2,,,,8-4-2[4:1]/5h[8:1],,,,8/5,,5,6,7h[8:1],,,,7h[8:1]/1,,,,7V51[4:1]/5,,,,7/1,,2,3,
{8}4-8[8:1],,4/C,,5-1[8:1],,5/C,,3-7[8:1]/7-3[8:1],,C,,6-2[8:1]/2-6[8:1],,C,,
{4}1-7[8:1],2,3-1[8:1],4,5-3[8:1],6,7-5[8:1],8,
{8}1,2,3,4,5,6,7,8,
{16}1,2,3,4,5,6,7,8,
{32}1,2,3,4,5,6,7,8,1,2,3,4,5,6,7,8z4[32:17],
{1}1s5b[2:1],
{8}4h[8:1]/5h[4:1],{4},{16}3,4,,6,{8}5,8/1,2/7,
3/6,{16}1,5,2,4,{8}3h[8:1],{16}6,5,7,4,{8}8,7/1,
2/6,{16}3,4,2,4,{8}1h[8:1],{16}7<4[8:1],8,,8,{8}7,1,
2/5,{16}6,5,7,4,{8}8h[8:1],{16}1,5,2,4,3-1b[8:1],5,4-8b[8:1],6,
{8}A3f,A4f,,1,{16}8/E4f,{8},{16}2/E6f,{8},7/Cf,
{4}4x-8b[8:1]/5x-1[8:1],E5f/B5/B4,{16}2,4,,4,{8}3-1b[8:1],4/5,
3/6,{16}7,8,6,8,{8}5h[8:1],{16}3,4,2,4,{8}1,8,
3/7b,{16}2-5[8:1],1,,1,{8}2,{16}7b-3[8:1],8,,8,{8}7,1,
2b/4,4b/2-6[8:1],1,8/2b,,7,8,4,
6b/3,{16}8,4,7,5,{8}6h[8:1],{16}3,4,2,5,{8}1,2/8,
7/3,{16}6,5,7,5,{8}8h[8:1],{16}2>5[8:1],1,,1,{8}2,8,
7/4,{16}3,4,2,5,{8}1h[8:1],{16}8,4,7,5,6-2b[8:1],4,5,3,
{4}6b>3[8:1]*<1[8:1],6b,{16}2/E6f,{8},{16}7/E4f,{8},1/E5f,
{2}Cf/8-4[8:1],{16}7,5,,5,{8}6-8b[8:1],5/4,
6/3,{16}2,1,3,1,{8}4h[8:1],{16}6,5,7,5,{8}8,1,
6/2b,{16}7-4[8:1],8,,8,{8}7,{16}2b-6[8:1],1,,1,{8}2,8,
{16}4,5,4,5,{8}3-6[8:1]/6-3[8:1],3/6,{4},{8}1/8,2/7,
3V58b[4:1]/6V41[4:1],{4},{8}E5f/E6/B5/B4/E4,{2},{4}5h[4:1]/2-4b[8:1],
{8}2-8b[8:1],6h[4:1],{4}2-6b[8:1],7,
{2}8b-4[8:1]/4-2[8:1],1b-5[8:1]/5-7[8:1],
{16}2bxh[4:1],,E2,,7bxh[4:1],,E8,,1bx,,C,8bx,,,2/7,3/6,
{8}4bp1[2:1]/5,,,,,,E1f,,5bq8[2:1]/D1f,,,,,,Cf,,
{8}2bh[4:1]/E6f,,,,7bh[4:1]/E4f,,,,
{8}4h[8:1]/5h[8:1],,3/6,2/7,
{24}1,8,1,8,1,8,1-4b[8:1],8-5[12:1],1,8,1,8,
{16}E1f/E2/E8,,,,2x/7x,,3x/6x,,4,5,4,5,3/6,,2/7,,
{16}1/8,,2,2,4,3,5,4,6,6,3,5,2-6[8:1],,1,,
{16}2/8,,7,7,5,6,4,5,3,3,6,4,7-3b[8:1],,8-4b[8:1],,
{16}7b,,8b,,,,6,,3/4,,,1/2,,,7/8,,
{8}1/6-3[8:1]*-1[8:1],6,,,
{32}8,,,,1/2,3,4,5,6,,,,8/7,6,5,4,
{8}3-6[8:1]*-8[8:1],3,,,
{64}Ch[4:1],,,,,,,,E2/D2,A2,D3,A3,D4,,,,,,,,,,,,E8/D8,A7,D7,A6,D6,,,,
{16}2,4,3,6,5,7,1,8,2,6,4,5,3,3,7,7,
{32}1/8h[4:1],,,,2,3,4,5,6h[4:1],,,,8,1,2,3,4h[4:1],,,,6,7,8,1,2h[4:1],,,,4,5,6,7,
{4}8w4[4:7],,,,
E
