&title=変態乳牛
&artist=Tom-H@ck
&first=-0.64
&des=-SENA- YoZoRa(心白-HW)
&des_5=-SENA- YoZoRa(心白-HW)
&lv_5=13+
&inote_5=(50){4},{16}1-4[16:1],5,{8}5,{16}1-6[16:1],5,{8}5<8[16:1],1-4[16:1],5>2[16:1],
1,E7,{16}8-5[16:1],4,{8}4,{16}8-4[16:1],4,{8}4-1[16:1],8-5[16:1],4<8[16:1],
8,E3,{16}1>4[16:1],7,{8}7,{16}1<6[16:1],5,{8}5v8[16:1],1v4[16:1],5>2[16:1],
1,E7,{16}8V64[16:1],1,{8}1,{16}8-4-2[32:3],2,{8}2-6-8[32:3],{4}8<3-1[32:5]*>5-7[32:5],
{8},B6/B2,8<4[16:1]*-6[32:1],3,8V62[16:1],2-6[16:1],{4}8w4[16:1],
{8},B7,1-3<5[16:1]*>3[32:1],6,1V37[16:1],7-3[16:1],{4}1w5[16:1],
{8},B2,{16}8-5[16:1],7,{8}6-3[16:1],{16}4-1[16:1],3,{8}2-7[16:1],{16}8-4[16:1],7,6V42[16:1],5,
{8}4,E7,{16}1-4[16:1],2,{8}3-6[16:1],{16}5-8[16:1],6,{8}7-2[16:1],{16}1-5[16:1],2,3V57[16:1],4,
{8}5,E3,{16}8/1-5[16:1],7,{8}6-2[16:1],{16}6-1[16:1],7,{8}8-5[16:1],{16}4,4,3,3,
{8}2h[8:1],C,{16}1/8-4[16:1],2,{8}3-7[16:1],{16}3V17[16:1],2,{8}1V35[16:1],{16}5,5,6,6,
{8}7h[8:1],C,{16}1/2-4[16:1],2/1,7/8q6[16:1],7/8,{4}2,{16}8/7-5[16:1],8/7,2/1p3[16:1],1/2,
{4}7,{16}8-4[16:1],8,1-5[16:1],1,2-6[16:1],2,3-7[16:1],3,4-8[16:1],4,5,5,
{4}6h[8:1],{16}1-5[16:1],{32}8,8,{16}1q6[16:1],7,{8}1,E8,{16}8-4[16:1],{32}1,1,{16}8p3[16:1],2,
{8}8,E2,{16}1-4[16:1],{32}2,2,{16}1-3[16:1],8,7-4[16:1],{32}6,6,{16}7-5[16:1],8,1w5[8:1],{32}2,2,{16}1,8,
,,,,{8}1>4[16:1],B6/B7,1/8<5[16:1],B3/B2,8/1>4[16:1],B6/B7,
{16}1/8,B7/B6,{8}B2/B3,5<8[16:1],B7/B6,5/4>1[16:1],B2/B3,4/5<8[16:1],B7/B6,
5/4,{64}D5,A4,D4,A3,D3,A2,D2,A1,{16}6-4[16:1],6,{8}6-8[16:1],{16}6V82>3[16:1],2,{8}6V84[16:1],8-6>5[16:1],8,
8,E3,{16}3-5[16:1],3,{8}3-1[16:1],{16}3V17<6[16:1],7,{8}3V15[16:1],1-3<4[16:1],1,
1,{64}6,5,6,5,6,5,6,5,{16}6-2[16:1],6,{8}2-6[16:1],{16}4-7[16:1],4,{8}3-8[16:1],{16}3/4>1[16:1],2,3/4<7[16:1],5,
{8}4,A4,{16}3-7[16:1],3,{8}7-3[16:1],{16}6-1[16:1],6,{8}5-2[16:1],{16}6>3[16:1],4,5/6,7,
{8}6,{64}6,7,8,1,2,3,4,5,{16}6/1-4[16:1],{32}1,1,{16}2>5[16:1],2,{8}1,2b,{16}8-5[16:1],{32}8,8,{16}7<4[16:1],7,
{8}8,7b,{16}2-5[16:1],{32}2,2,{16}1-4[16:1],1,7-4[16:1],{32}7,7,{16}8-5[16:1],8,2>1[64:7],{32}2,2,{16}1,1,
{64},,,,,,,,2,3,4,5,6,7,8,1,{16}2/7qq6[16:1],{32}1,1,{16}8>3[32:1],6,{8}7,{96}8b,7,6,5,{12}4,{48}2pp3[16:1],,,8,{96},{32}8,{16}1<6[32:1],3,
{8}2,{96}1b,2,3,4,{12}5,{48}6/4,,,5,{96},{32}5,{16}E8/5-7[16:1],E3/5-3[16:1],6/4,{32}5,5,{16}E6,E5,8p5[6:1],{32}8,8,{16}2-5[24:1],2,
,,{8}2b,5pp7[16:1],6,5qq3[16:1],4,5-1[16:1]*v8[16:1],6,
{4}5,{8}7<4[16:1],8,2q6[16:1],1,4q8[16:1],4<7[16:1]*qq2[16:1],
{16}4,3,{8}4b,
E
