&title=Sparkle
&artist=Maozon
&first=0
&des=AsukaHana
&wholebpm=144
&lv_5=13+
&inote_5=(144)
{1},
{8}1/5V73[8:3],,2,3V51[4:1],,1>8[8:7],2,3h[8:7],,,,,,,,,
{4}1-4[4:1],8,7-2[4:1],6,5-8[4:1],4,3-6[4:1],2,1-4[4:1],2,3-6[4:1],4,5-8[4:1],6,7-2[4:1],8,1v3[4:1],7,8v6[4:1],2,1-5[8:1],1/7h[4:1],{16}5h[16:3],,,6h[16:3],,,7h[8:1],,8h[8:1],,7h[8:1],,6h[8:1],,5h[8:1],,4h[8:1],,3h[8:1],,2h[8:1],,1,,
2b/8b,,,2b/4b,,,4bqq1[4:1]/6bpp1[4:1],,,,,,,,,,
{8}8<3[4:1],,2,2h[4:1],,4-8[8:1],3,2h[4:1]/4,,
1-5[8:1],2,3h[4:1]/1,,4v1[8:1],1>6[4:1],2,3h[8:3],,,8-6[8:1],2-6[8:1],8-4[8:1],2,8-6[8:1],,8-4[8:1],1,8<3[4:1],,1b,1b,,
{8}2>7[4:1],,8,8h[4:1],,6-2[8:1],7,6/8h[4:1],,
1-5[8:1],2,1/3h[4:1],,5-8[8:1],4-1[8:1],5,4>7[4:1],,5,5,,5<2[4:1],4,3,,4>7[4:1],5,6,,5,5h[4:1],,
{8}7h[8:3],,1,1h[2:1],,3,3,3^6[4:1],,6^1[4:1],,1^4[4:1],,6b,6b,,
{8}5h[8:3],,4,4h[4:1],,5^8[8:1],4,3h[4:1]/5,,4^1[8:1],5,4/6<3[4:1],,5,5h[4:1],,
{8}3h[8:3],,1,1h[2:1],,8,8,8<4[4:1],,4<8[4:1],,8V62[4:1],,1b,1b,1b,
{8}8<3[16:3],,18,2>7[16:3],,12,8h[4:1],,{24}1,8,1,8,1,8,2,7,2,7,2,7,1,8,1,8,1,8,1-5[8:1],,,,,,
{8}8h[1:1],,,,,,,,6h[1:1],,,,,,,,3h[1:1],,,,,,,,1h[8:5],,,,,{16}8,1,8,,8,,
{8}8v5[4:1],,7,,6v3[4:1],,5,,4v1[4:1],,3,,2v7[4:1],,1,,8<3[16:5],8,4>7[16:5],4,8<3[16:5],8,4,4,
{16}8b-5[16:3],,,5b-2[16:3],,,2b-7[16:3],,,7b-4[16:3],,,4b,,,,
{16}5,5h[8:1],,3>8[8:1],5,2,4,,6,6h[8:1],,8>3[8:1],6,1,7,,5,5h[8:1],,3-8[8:1],5,2,4,,6,6h[8:1],,8,6,1,7h[16:3],,4,4h[8:1],,6<1[8:1],4,7
,5,,3,3h[8:1],,1<6[8:1],3,8,2,,4,4h[8:1],,6,4>1[8:1],7,5,,4/8w4[8:1],,7,,8b,,,,
{16}2,1^4[8:1],,2,8,1,7,,6,5^8[8:1],,6,4,5,3,,2,1-5[8:1],,2,8,1,7,,6,5-1[8:1],,6,4,5,3,,2,1^4[8:1],,2,8,1,7,,6,5^8[8:1],,6,4,5,3,,2,1,,1h[16:3]/2,3,4,5,,3qq1[8:1]/4pp6[8:1],,25,,3b/4b,,,,
{16}7-5[8:1]/8h[4:1],,,,7,,2h[16:5],,4^1[8:1],,,5,4,,5h[8:1],,8-6[8:1],,7,,8/1h[4:1],,,,5-1[8:1],,4,,5/6h[2:1],,,,
2-4[8:1],,,,2,,7h[16:5],,5^8[8:1],,,4,5,,4h[8:1],,1-6[8:1],,8,,1/5h[4:1],,,,
{16}6b,,,7b/8b,,,1b/2b,,{8}3h[8:1]/4,5h[8:1],2h[8:1],6h[8:1],4h[8:1],7h[8:1],6h[8:1],{16}8,8,{8}3h[8:1],1h[8:1],2h[8:1],4h[8:1],3h[8:1],5h[8:1],4,{16}6,6,57,,56,,45,,3,3,24,,34,,45,,6,6,{32}1b,2,3,4,,,8b,7,6,5,,,2b,3,4,5,,,7b,6,5,4,,,2h[4:1],,,,,,,,
{16}8,7,1,2,7,6,2,3,7,6,5,4,2,3,4,5,1,8,2,3,8,7,2,3,8,7,6,5,2,3,4,5,8,7,1,2,7,6,2,3,7,6,5,4,2,3,4,5,7,6,8,1,7,6,1,2,7,6,5,4,8,1,2,3,
{16}4/6h[4:1],,,,5,,,5h[16:3]/6,,,6h[8:3],,1,,,,5-1[8:1],,5,,4h[16:3]/5,,,8h[16:3],,,4,,28,,,,
8/3h[4:1],,,,4,,,4h[16:3]/3,,,3h[8:3],,8,,,,4-8[8:1],,4,,5h[16:3]/4,,,1h[16:3],,,5,,71,,,,
{16}1h[8:3],,,,,,8h[8:1],,7h[16:3],,,6h[16:3],,,5,,5w1[8:1],,,,,,,,4w8[8:1],,,,,,,,
8h[8:3],,,,,,1h[8:1],,2h[16:3],,,3h[16:3],,,4,,4w8[8:1],,,,,,,,5w1[8:1],,,,,,,,
{16}18,,12,,83,,2,1,2,1,2,,8h[8:1]/3,,2,2,18,,78,,61,,7,8,7,8,7,,6h[8:1]/1,,8,8,6,6,4,4,2,2,4,4,6,6,8,8,1,1,3,3,4-7[8:1]/5-2[8:1],,45,,45,,,,4-1[8:1]/5-8[8:1],,45,,4b/5b,,,,
{16}18,,2,1,,5,6,,3,4,,8,7,,5,6,47,,3,5,,5,7,,7,1,,1,3,,3,4,25,,6,5,,1,2,,7,8,,4,3,,1,2,38,,7,1,,1,3,,3,5,,5,7-5[8:1],,6,,7b/8b,,2,4h[8:1],,7,5h[8:1],,2,4h[8:1],,7,5h[8:1],,8,1,2/5h[8:1],,7,4h[8:1],,2,5h[8:1],,7,4h[8:1],,2,5h[8:1],,3,4,7/5h[8:1],,2,4h[8:1],,7,5h[8:1],,2,4h[8:1],,7,5h[8:1],,1,1,8,7,2,3,7,6,3,4,5w1[8:1],,46,,5b,,,,
{16}7h[8:1],,1-6[8:1],8h[8:1],,3,1,,4-8[8:1],5,3,6,4,,
7,1,6h[8:1],,4-7[8:1],5h[8:1],,2,4,,1-5[8:1],8,2,7,1,,
6,4,7h[8:1],,5-7[8:1],6h[8:1],,4,5,,3-1[8:1],6,4,5,3,,
7,2,6h[8:1],,8-6[8:1],7h[8:1],,1,8,,2-4[8:1],7,1,8,2,,7,,
3h[8:1],,5-2[8:1],4h[8:1],,7,5,,8-4[8:1],1,7,2,8,,
3,5,2h[8:1],,8-3[8:1],1h[8:1],,6,8,,5-1[8:1],4,6,3,5,,
2V84[4:1],2,8,,2,,6,,6V48[4:1],6,4,,6,,2,,
1,1,{16}2b-6[2:1],,,8b,,,5b,,,1b,,,4b,,,,
{16}
7,6,5,4,2,3,4,5,7,6,5,4,3,2,1,8,72,3,4,5,7,6,5,4,2,3,4,5,6,7,8,1,
82,7,6,5,7,6,5,4,6,5,4,3,2,1,8,7,61,2,3,4,2,3,4,5,3,4,5,6,7,8,1s5[1:1],2,,,,,,,,,,,,,,,,,,,,,,,,,,,,{1},,E,
