&title=Primitive Vibes
&artist=lapix
&first=0
&des=你是扶她吗
&lv_5=13+
&inote_5=(150){1},,
{8}6h[4:1],5,4,3,{16}2,1,,1,2,,3/8,,
{8}3h[4:1],4,5,6,{16}7,8,,8,7,,,,
{8}7h[4:1],8,1,2,{16}3,4,,4,3,,2/5,,
{8}2h[4:1],1,8,7,{16}6,5,,5,6,,,,
{8}6h[4:1],4,3,2,{16}8,1,,1,8,,2/7,,
{8}3h[4:1],5,6,7,{16}1,8,,8,1,,,,
{8}7h[4:1],1,2,3,{16}5,4,,4,5,,3/6,,
{8}1/2,1/8,7-3[8:1],1-5[8:1],7,1,8b,,
{16}7/2,,3,4,,4,5,,5,6,,6,1,,1,,
{16}2/7,,6,5,,5,4,,4,3,,3,8,,8,,
{16}1/8,,2,3,,3,4,,4,5,,5,6,,7,,
{16}8/1,,7,6,,6,5,,5,4,,4,3,,2,,
{16}5,4,5,4,6,4,5,4,7,4,5,4,8,4,5,4,
{16}6,6,5,5,7,7,2,2,4,4,3,3,7,7,2,2,
{8}6,3,7,2,1-5[8:1]/8-4[8:1],2/7,1/8,,
{4}3b-7[8:1],2b-6[8:1],1bw5[8:1],1b,
{16}1-5[8:1]/7,,,2,1,,3,,
{16}1-5[8:1]/7,,,2,1,,3,,
{16}1-5[8:1]/7,,,2,1,,3,,
{16}1-5[8:1]/7,,,2,1,,3,,
{16}1v6[8:1]/7,,,2,1,,3,,
{16}3/5v2[8:1],,,6,5,,7,,
{16}1qq7[8:1]/7,,,2,1,,3,,
{16}2hb[32:1],,,,1,1,1,,
{16}8q4[8:1]/2,,,7,8,,6,,
{16}8q4[8:1]/2,,,7,8,,6,,
{16}8q4[8:1]/2,,,7,8,,6,,
{16}8q4[8:1]/2,,,7,8,,6,,
{16}8>3[8:1]/2,,,7,8,,6,,
{16}6/4<7[8:1],,,3,4,,2,,
{16}1/8,,2,2,7,7,3,3,{24}7x,6hx[24:2],,3x,4hx[24:2],,1b,,,,,,
{16}1-6[8:1]/8,,,2,1-5[8:1],,3,,
{16}1/8>3[8:1],,,7,8-4[8:1],,6,,
{16}1-6[8:1]/8,,,2,1-5[8:1],,3,,
{16}1/8>3[8:1],,,7,8-4[8:1],,6,,
{16}1<6[8:1]/8,,,2,1-4[8:1],,3,,
{16}1/5>2[8:1],,,6,5-8[8:1],,7,,
{16}1<6[8:1]/5,,,2,1pp2[8:1],,3,,
{16}1/5,,6,,7b,,7b,,
{16}8v3[8:1]/1,,,7,8p4[8:1],,6,,
{16}8/1<6[8:1],,,2,1q5[8:1],,3,,
{16}8v3[8:1]/1,,,7,8p4[8:1],,6,,
{16}8/1<6[8:1],,,2,1q5[8:1],,3,,
{16}8>3[8:1]/1,,,7,8v5[8:1],,6,,
{16}8/4<8[8:1],,,3,4,,2,,
{8}1/2,3/8,7/4,1/8,2/7,6/3,7b/8b,,
{32}1b-6[8:1]/7b,2,3,,,,,,
{8}8/1-5[8:1],8,8/1-4[8:1],8,8/1,8,
{32}1b/8b-3[8:1],,,,,,,,
{8}1/8-4[8:1],1,1/8-5[8:1],1,1/8,1,
{32}8b/2b-6[8:1],,,,,,,,
{8}7/2-5[8:1],7,7/2-4[8:1],7,7/2,7,
{32}2b/7b-3[8:1],,,,,,,,
{8}2/7-4[8:1]*-5[8:1],2,7-2[8:1]*-1[8:1],,7,,
{32}6b/2bxv7[8:1],5/1,8/4,,,,,,
{8}6h[16:1]/2-5[8:1],6h[16:1],6h[16:1]/2>4[8:1],6h[16:1],6h[16:1]/2,6,
{32}2b/7bv2[8:1],,,,,,,,
{8}3h[16:1]/7-4[8:1],3h[16:1],3h[16:1]/7<5[8:1],3h[16:1],3h[16:1]/7,3,
{32}7b/2bp6[8:1],,,,,,,,
{8}8h[16:1]/2v5[8:1],8h[16:1],8h[16:1]/2-4[8:1],8h[16:1],8h[16:1]/2,8,
{16}1x,1x,1x,1x,1x,1x,1x,1x,1x-5pp7b[4:1]/8x-4qq2b[4:1],,,,,,,,
{1},{16},,,,,,,,,,,,3,4,3,4,
{16}3h[4:1],,,,6,4,6h[4:1],,,,,,3,6,2,7,1h[16:3],,8,8,,7/2,,,
{12}1b/8b,1b/8b,1b/8b,2b/7b,,,
{4}2>4[4:1],4<6[4:1],6<8[4:1],8>2[4:1],
{4}2>5[4:1],5<8[4:1],8>3[4:1],3<6[4:1],
{4}6<2[4:1],2>6[4:1],6<2[4:1],2,
{8}6-4[8:1],7,2-6[8:1]/6,1,2-8[8:1]/7-3[8:1],8,2/7,,
{16}3/5-1[8:1],,6,6,5,,7,,
{16}8-4[8:1]/2,,7,7,8,,6,,
{16}3/5-1[8:1],,6,6,5,,7,,
{8}8/2,3/4,4/5,5/6,
{16}7/1-5[8:1],,2,2,1,,3,,
{16}4-8[8:1]/6,,3,3,4,,2,,
{16}7/1-5[8:1],,2,2,1,,3,,
{8}4/6,7/8,8/1,1/2,
{16}3,3,4,4,5,5,6,6,7,7,8,8,1,,1,,
{32}7,6,5,4,3,2,1,8,7/2,3,4,5,6,7,8,1,2/7p5[4:1],6,5,4,3,2,1,8,
{4}7,
{8}4hx[16:1],4hx[16:1],3h[16:1]/8h[16:1],3h[16:1]/8h[16:1],
{8}5h[16:1]/6h[16:1],3h[16:1]/4h[16:1],2hb[32:1]/7hb[32:1],,
{16}2b,6,5,6,1b,5,4,5,8b,4,3,4,7b,,,,
{16}1-5[8:1]/7,,2,2,1,3,3,,
{16}1-5[8:1]/7,,2,2,1,3,3,,
{16}1-5[8:1]/7,,2,2,1,3,3,,
{8}4<7[8:1]*>1[8:1],1/7,4b,,
{16}8q4[8:1]/2,,7,7,8,6,6,,
{16}8q4[8:1]/2,,7,7,8,6,6,,
{16}1,7,5,7,1,7,5,7,
{32}1x,2x,3x,4hx[32:3],,,7x,6x,5x,4hx[32:3],,,,,,,
{16}1<6[8:1]/8,,2,2,1-5[8:1],3,3,,
{16}1/8>3[8:1],,7,7,8-4[8:1],6,6,,
{16}1<6[8:1]/8,,2,2,1,3,3,,
{8}4pp6[8:1]*qq2[8:1],1/7,4b,,
{16}8v3[8:1]/1,,7,7,8p4[8:1],6,6,,
{16}8/1v6[8:1],,2,2,1,3,3,,
{16}7,3,4,3,8,4,5,4,
{8}1w5[8:1],,1b,,
{16}8/2,,1,1,1-5[8:1],1,1,1,1,,,,
{16}8/2,,1,1,1,1,1,1,1bv4V25[16:5]*v6V85[16:5],1,1,1,1,,,,,,,,
{16}7/2,,6,,4,5,4,5,3,3,,6,6,5,6,,
{16}2,2,4,3,7,7,5,6,3b-8[8:1],,,,7h,,7h,,
{16}5/6,,8,,3/4,,1,,7hb[384:1],,7hb[384:1],,
{16}8/2,,1,1,1,1,1b,1,1bv4V25[16:5]*v6V85[16:5],1,1,1,1b,,,,,,,,
{16}6/4,,8,,3,4,2,,8,6,7,1,3,2,8,,
{16}1,1,2,2,3,3,4,4,{32}5,6,7,8,1,2,3,4,
{4}5pp2b[16:5]/7qq2b[16:5],5b/7b,
E
