&title=オッド♡ラヴィ
&artist=Lapix feat. PANXI
&first=-0.03
&des=Ailen.
&lv_5=14+
&inote_1=(172){32}
&inote_2=
&inote_5=(172){16},
(172){8},,,,,,,,6-4-7[8:1],6,,2-5[8:1],2,,8-3-7[8:1],8,,
2,2,1,
(172){16}7,8,7,,6/1,,,,
(172){8}3-5-2[8:1],3,,8-4[8:1],8,,1-6-2[8:1],1,1-5-1<3[2:1],,,,,,,,
1,6,1-5[8:1],6-2[8:1],1-7[8:1],6,1,,
(172){16}5/3,,2/6,,7,1,7-4-6-1[4:1],1,,8/7,,,
(172){8},,2,3/5,7-4[8:1],2-5[8:1],7-1[8:1],2,7,,
(172){16}3,4,3,,2,6,2v5-3-8[4:1],6,,,2/5,,
(172){8},,7,2,7-1[8:1],2-6[8:1],7-3[8:1],2,7,,
(172){16}7/1,,2/6,,5,3,6-1-7-4[4:1],2,,,6/2,,
(172){8},,3,7-1[8:1],3-5[8:1],7-3-7[4:1],3,7,,,
(172){16},,2,,8/1,,7/3,,
(172){32}1/5,2,3,4,5,6,7,8,1,2b/6b,,
(172){64},
(172){16},,1,,4,3,4,,5/6,,7,,1,8,1,,
7>2-6[4:1],8,3,4,7,,,,
E5,,E4,,E3,,E2,,,,
8,,6,5,6,,7/4,,3,,1,2,1,,
2<7-3[4:1],1,6,5,2,,,,
,A2,A1,A8,A7,A6,A5,,
7,7,8,7,,6/1,1,
3,3,4,3,,5/2,2,
8,8,1-5[8:1],1,,8,1/8,,,
6bh[8:1]/4bh[8:1],,,,7bh[10:1]/3bh[10:1],,8bh[8:1]/2bh[8:1],,,,,
8bh[8:1]/7bh[8:1],,,,1bh[8:1]/3bh[8:1],,,,5bh[8:1]/7bh[8:1],,,,
3bh[8:1]/4bh[8:1],,,,7b/1b,,5b/3b,,8b/2b,,4b/6b,,8bv5b[8:1]/2bv5b[8:1],,,,
,,,,
6,,6,5,,7/4,,3,,3,5,,6/2,,8,,8,7,,6/1,,2,,2,1-5[8:1],,2/1,,1b/8b,,,,
6<4[2:3],,,,,,,,E8/B7,,,,,,B3/B2,,,,E6/B6,,,,,,E5
,,,,6b,,,,
1-5[8:1],,,,1,,,,3-6[8:1]/7-2[8:1],,8/4,,7/3,,,,8-6-4[4:1],,1,,3,,2,,1,,,,
2<7[8:1]/6>3[8:1],,,,2>6[8:1]/6<2[8:1],,,,2/6,,,,5/1,,4/8,,7/3,,2/6,,
5,,1,,5<5[4:1],,C,,,,,,,,,,2-5[8:1],,2,,8-4[8:1],,8,,3-7[8:1],,3,,6-2[8:1],,6,,
1-5[8:1],,1,,6-4-7[4:1],,6,,
(172){32}
,B1,C,B5,,,,,,,
(172){16}
,,,7-4[8:1],,7,,1-5[8:1],,1,,6-2[8:1],,6,,3-7[8:1],,3,,8-4[8:1],,8,,
2-5-3-8[3:1],,1,1,
(172){32}
,B7,C,B3,,,,,,,,,
(172){16}
,,5/2,3,4,3,4,,6,5,6,,8/3,2,1,2,1,,8/4,8/4,,,7/3,7-3[8:1]/3,,,6/2,,,,,,,
1b-5b[8:1]/7b-3b[8:1],,6b/2b,,1b/7b,,,,2q5[4:1]/6,,7/3,,5<3[4:1]/2,,7,,7b,,
(172){32}
,A1,A2,A3,
(172){16}
,6,,4,5,3,4,5,,6,4,4,,5-8[3:2]/4,,4,,3,,3,,2h[16:1],,2h[16:1],,1h[16:1],,1h[16:1],,
1-4[3:2],,8,,7,,7h,,6h[16:1],,6h[16:1],,5h[16:1],,5h[16:1],,
8p1[4:1],,,,1<1[2:1],,,,5,,,,1p8[4:1],,,,8-5>3[4:1],,,,,,,
(172){32}
,,,2,1,8,7,6,5,4,3,2,1,8,7b/3b,,,,
(172){16}
6,4,6,4,7,3,7,3,8,2,8,2,5,1,6,2,7,3,8,4,1
,2,3,4,5,1,6,2,7,3,8,4,
(172){24}
1,2,3,4,5,6/2,7/3,4/8,5,6,7,8,
(172){32}
1,2,3,4,5,6,7,8,
(172){48}
1,2,3,4,5,6,7,8,1,2,,,,,,
(172){16}
6/4,,7/1,,5/3,,
(172){32}
1b-5b[8:1],2,3,4,5,6,7,8,1b,,C,,
,,,,,,8/2,7/3,6/4,,,,,,
2b/7,3,4,,,,,,8/3b,7,6,,,,,,1b/6,2,3,,,,,,7b/2,6,5,,,,,,
2b/7b,3,4,,,,,,8b/3b,7,6,,,,,,1b/6b,2,3,,,,,,
8,7,,,4,3,,,
7b/2b,6b,5b,,,,,,1b/6b,2b,3b,,,,,,8b/3b,7b,6b,,,,,,3b/4b,,,,7b/8b,,,,6b/5b,,,,1b/2b,,,,
A3,A4,A5,A6,A7,A8,A1,A2,A3,A4,A5,A6,A7,A8,A1,A2,A3/Cf,,,,
6,,5h[8:1],,6,,6,,5,,6,,5,,,,5,,4h[8:1],,5,,5,,4,,5,,4,,,,
4,,3h[8:1],,4,,4,,3,,,,1/6,2,3,,,,,2/5,6,7,,,,,,
3h[8:1]/4h[8:1],,,,,,,,5h[8:1]/6h[8:1],,,,,,,,,
1h[8:1]/3h[8:1],,,,,,,,7h[8:1]/5h[8:1],,,,,,,,
1-3-5-7-1[4:1]/5,,,,7/3,,,,5/1,,,,,,,,,2,3,4,5,6,7,8,1,2,3,4,5,6,7,8,1,
2bv4b[8:1]/8b-4b[8:1],,,,,,,,8bv5b[8:1]/2bv5b[8:1],,,,,,,,
8bv6b[8:1]/2b-6b[8:1],,,,,,,,8b/2b,,,,,,,,
3b-6b[8:1]/7b,,,,1b,,,,
3b/7b-2b[8:1],,,,5b,,,,7b/1b-5b[8:1],,,,3b,,,,
6b-2b[8:1]/1b,,,,7b,,,,4b-8b[8:1]/6b,,,,3b,,,,
7b-2b[8:1]/4b,,,,6b,,,,7b/3b-6b[8:1],,,,1b,,,,3b/7b,,,,,,,,
4b-1b[8:1]/8b-5b[8:1],,7b/3b,,6b/2b,,,,4b/8b,,,,
,E5,E4,E3,E2,E1,E8,E7,E6,5,4,3pp5>8[4:1],2,1,8,7,6,5,4,3b,,,,,,,,
,4,,5,,6,,7,,8,,1,,2,,3,,4,,6,,5,,4,,3,,2,,1,,8,,
6,,5,,1,,2,,7,,6,,2,,3,,8,,7,,3,,4,,
(172){16}
5,4,5,4,
(172){20}
6,3,6,3,
(172){24}
7,2,7,2,
(172){28}
8>8>6[2:1],1,8,1,
(172){32}
8,1,8,1,,,,,,,,,,,,,,,,,
7,8,1w5[8:1],2,3,4,5,6,7,8,1b,,Cf,,,,,,,
6,,1,,7-4[8:1],,8,,6,,1,,7/8,,,,8,,2,,2-5[8:1],,1,,3,,8,,2/1,,,,
7,,2,,8,,1,,7,,2,,8/1,B8,C,B4,1-5[8:1],2,3,4,5,6,7,8,1b,,Cf,,,,
8,,2,,2>5[8:1],,1,
,3,,8,,2/1,,,,7,,3,,6<1[8:1],,5,,7,,4,,6/5,,,,
4,,7,,2,,6,,4,,8,,2,B2,C,B6,7-3[8:1],6,5,4,3,2,1,8,7b,,Cf,,,,
2-5-3-8[4:1],,5,,4,,3,,2,,,,7-4[8:1],,,,6,,,,7/1-5[8:1],,,,2,,,,1/8,,,,7,,
6,,1,,7,,8,,7-4-6-1[4:1],,,,2-5[8:1],,8,,7,,,,,,,,,,7h[4:1]/3h[4:1],,,,,,,,,
2/6,5/1,4/8,,,,5/1,4/8,2/6,7/3,5/1,6,7,8,1,2,3,4,5,6,7,8,1/5<5[4:1],,
,E3,E5,E7,E1,,,,,,,,,,,6,7,8,1,2,3,4,5w1[8:1],6,7,8,1,2,3,4,5b,,Cf,,,,,,
3,,4,,2<7[8:1],,5,,3,,4,,2,,6,,,,6,,5,,7>2[8:1],,4,,6,,5,,7,,3,,,,
5b,3/6,7/4,8/5h[8:1],,,,1,2,3,1/4,2/5,3/6,7<1[8:1]/7<1[8:1]/4,,,,,,,,7b/4b,,,,,,
4,,4,,6<1[8:1],,5,,7,,4,,6,,3,,,,3,,8,,2>5[8:1],,1,,3,,8,,2/1,,,,,
6,7,8,1/5,2/6,7/3h[8:1],,,,5,6,7,5/8,6/1,7/2,8/3>5[8:1]/3>5[8:1],,,,,,,,3b/8b,,,,,,,,
7-3-8[4:1],,8,,6,,1,,7,,,,1-5[8:1],,,,2,,,,1/7,,,,7,,8,,7,,,,
8/4,,8/4,,,,,7/3,,7-3[7:1]/3,,6,5,4,3,2,1,8,7b/4h[8:1],,,,,,,,,,,,
8b-4b[8:1]/2b-6b[8:1],,7/3,,6b/4b,,,,8b/2b,,,,,,,,
7p4[4:1],,4,,6,,5,,7,,,,,,,,,3,2,1-5[8:1],8,7,6,5,,,,1b/8b,,,,
7,,4,,6,,3,,5,,2,,7,,5,,6,,4,,5,,5,,3-5-2[5:1],,7,6,5,4,,,3,,8-4[8:1],,,,7,,,,
8/1-5[8:1],,,,2,,,,1/7-3-8[5:1],,,,,4,3,2,1-5[8:1]/7,,,,6,,,,1/7p4[4:1],,,,8,,,,
7b/2b,,,,,,,,,2,,1,,4,,5,,8,,7,,5,,1,,3,,4,,8,,6,,2,,1,,3,,8,,5,,7,,8,,4,,1,,2,,
6,,5,,7,,4,,2,1/3,8,7,6,5,1,8,7,6,5,4,3b/Cf,,,,,,,,
6-4-7[5:1],,,,2,3,4,5,6/1-5[8:1],,,,2,,,,1/8-4[8:1],,,,,,6,7,8/2-6-1[5:1],,,,3,,,,
7-3[8:1]/2,,,,8,,,,2-5[8:1],3,4,,,,,,1/2,8,7,6,,,,,
7b-3b[8:1]/1b-5b[8:1],,6/2,,5b/3b,,,,7b/1b,,,,,,,2q5[4:1],,4,,3,,5,,2,,
,,,,,,,6,7,8,1,2,3,4,,7,,3,,6,,2,,5,,1,,4,,3,,4,,2,,4,,1
,,4,,8,,4,,,,2-6[8:1],3
,4,5,,,,,2/7-3-8[5:1],,,,8,,,,7/1-5[8:1],,,,2,,,,
1/7-4[8:1],,,,8,,,,7/3-5-2[5:1],,,,,8,1,2,3/7pp5[5:1],,,,6,,,,7b/1b,,,,,,,,
4bh[8:1]/3bh[8:1],,,,,,,,6b/1b,,6b/1b,,5b/3b,,5b/3b,,8b/2b,,8b/2b,,7b/3b,,,,8b/4b,7b/3b,6b/2b,,,,,,,
6bh[8:1]/5bh[8:1],,,,,,,,8b/3b,,8b/3b,,6b/4b,,6b/4b,,7b/1b,,7b/1b,,6b/2b,,,,5b/1b,6b/2b,7b/3b,,
,,Cf,,,,7,,5,,6,,2,,4,,3,,8,,6,,7,,1,,3,,2,,7,,5,,6,,2,,4,,3,,
(172){20}
8,1,8,1,
(172){24}
7,2,7,2,
(172){28}
6,3,6,3,
(172){32}
5,4,5,4,5,4,5,,
2,3,4,7,6,5,1,2,3,8,7,6,5,4,3,2,1,8-4b[8:1],7,6/3,2,1-5b[8:1],7,6,,8b,,Cf,,1b,,Cf,,E
