&title=君の名前の風が吹く
&artist=ZENTA feat.いとうあやこ
&first=2.91
&des=もとなり
&lv_5=13
&inote_5=(168)
{4}4q5[4:5]
,,,,
,,,,
7<5[4:2],,,,
2>4[4:2],,,,
6>1[4:5],,,,
,,,,
3<8[4:5],,,,
,,,,
(192)
3h[4:8],,,,5,,6,,7h[4:4],,,{16},,E5,B4,
{4}B3,,,,
1pp1[4:5],,,,,,,,
7s3[4:5],,,,,,,,
{8}2v5[4:5],,,6-1[8:7],,,,,
{4},,,,
{8}5,4,3,6,5,4,3,5,
4,3,5,4,6,3,7,2,
8p6[8:6],,3,3,,,,,
{4}5h[4:4],,1,,
2p8[4:3],,,3x,
{8}2xh[8:3],,,4h[8:3],,,3,,
7h[8:3],,,5h[8:3],,,6,,
{4}1,,E3/E7,,
1/8,,2/7,,3/6,,4/5,,
{8}3/4,,,2h[8:3]/5h[8:3],,,,,
{4}3-8[4:1]/4-8[4:1],,,,
{8}5/6,,,4h[8:3]/7h[8:3],,,,,
{4}5-1[4:1]/6-1[4:1],,,,
{8}E2,,,E3,,,E4,,E8,,,E7,,,E6,,
E5,,,B3/B6,,,E2/E8,,
{4}2x-6-1[4:3]/7x-3-8[4:3],,,,,,,,
{8}2b-5[8:1],,1/2,,7,7-4[8:1],8,7,
,3,4x,,6,5,4/7,,
7-4[8:1],,7/8,,2,2-5[8:1],1,2,
,6,5x,,3,4,2/5,,
{4}7<4[4:1],4>1[4:1],1<6[4:1],,
2>5[4:1],5<8[4:1],8>3[4:1],,
4xb-2[8:1]*-6[8:1],,5xb-2[8:1]*-8[8:1],,
3xbpp7[4:2]*qq7[4:2],,,,
{8}3b,,2/4,,6,5,6,5/7x-4-1-5[8:5],,,,,,,,,
6,,5/7,,3,4,3,4/2x-5-8-4[8:5],,,,,A7,,A6,,
{4}1x<6[8:1],2,8x>3[8:1],7,2x>5[8:1],1,7x<4[8:1],8,
{16}2x,3x,4x,5x,6x,7x,8x,1x,{8}2x,5x,2x,5xb-8-6v8[8:5]b*-2-4v2[8:5]b,
{4},,,,
{8}7x/4x,7,7,7,2,6,5,3,6,6,7/5,,3,3,2/4,,
3,3,4,2,6,6,5,7,2,2,1/3,,7,7,6/8,,
5x/2x,2,2,2,7,3,4,6,2,1,3/8,,7,8,1/6,,
{16}8x,7,6,5,1x,2,3,4,E8,B7,B6,E6,E2,B2,B3,,{8}C,,,4/5,4-8[16:1]/5-1[16:1],,,,
E7/Cf/E3,,1/8,,1/2,2,1/2,2,1/2,,1/8,,8/7,7,8/7,7,
8/7,,4/5,,4/3,3,4/3,3,4/3,,4/5,,5/6,6,5/6,6,
5/6,,3/6,,1x/2x,3,4x/5x,6,7x/8,x,2/7,,5x/6x,7,1x/8x,2,
3x/4x,,B2/B3/B7/B6,,{16}1,2,3,4,8,7,6,5,{8}1,8,2,7,3,6,4,5,
2/B5/E6/B6,,,7/B3/B4,,,{8}Cf/1>8[2:7],,,,,,,,,{12}E2,E3,E4,,,,,{24},,,,,,,,,,,,,
{4},,,,,,,,,,,,,,,,E
