&title=Polar Star
&artist=MORE MORE JUMP! × 鏡音レン
&first=0
&des=71nG
&lv_5=13
&inote_1=
&inote_5=(180){4},,,,{32},{8}3xh[8:3],,,5xh[8:3],,,8x<1[1:1],,,,,,,,,,6h[8:3],,,8h[8:3],,,1<2[16:15],,,4h[8:3],,,,,,{32},,,D2,A1,,,,
{8},,,7x,5,7,5,6,4,5,5,3,4,1,4,2,5,3,6,4,4,6,6,2,2,4,4,3,6,4,7,8,6,5,4,1,5,2,5,1,6,2,6,1,5,8,5,1,5,2,6,3,3,7,7,5,5,6,6,3,4,3,2,1>4[8:1],,7,,6x/5x<1[2:1],,4,,3,,2,,5x<1[2:1]/1x,,2,,3,,4,,5x/8x>4[2:1],,6,,7,,8,,2x/1x>5[2:1],,8,,7,,6,,4h[4:1]/5<3[4:3],,,,5h[4:1],,,,6<4[4:3],,4,,5,,6,,{32}7x,8xh[32:31],{8},,,,,,,{32},,B2,Ch[16:9],{8},,,,,,,
{32},,8bx,7x,6xh[8:3],,,,,,,,,,8bx,1x,2xh[16:5],,,,,,,,,,6bx,3x/7x,4x>5[8:5]/8xh[32:38],,{8},,,,,,,,,{8}2>5[8:1],,2,1<6[8:1],,1,2>5[8:1],,2,8p4[8:1],,8,2hb[32:80],,,,{48}E8f,B7,B6,E6,,,,,,,,,,,,,,,E1f,B1,B2,E3,,,,,,,,,,,,,,,8x<1[8:5],B8,Cf,B4,,,,,,,,,{8},,,,,,,,7<4[8:1],,7,8>3[8:1],,8,7<4[8:1],,7,1q5[8:1],,1,6-4[8:1],7V51[4:1],6x,7x,2b>5[8:1],,12,,8-4[8:1],7,6,,7<4[8:1],,78,,1-5[8:1],2,3,,4-8[8:1],,64,,7<4[8:1],8,1,,2-6[8:1],,12,,8>3[8:1],7,6,,5x/4x,,34,,56,,27,,18,1,12,2,{16}2x,3x,4x,5x,6x,7x,8x,1x,{4}2x/Chf[1:2],,E5,,E1,,E3,,
{8}1bq5[8:1],8,7,6v1[8:1],,5,4,3pp2[8:3],,1,,8,,6-8[8:1],1,6,,6-1b[8:1],8,6,,6,5-2[8:1],4,1-5[8:1],,8,7p3[8:1],,78,1,2,3bV15[4:1],,3x,4-8-6[4:1],,4x,5-1-3[4:1],,5x,6V84[4:1],,6x,5w1b[8:1],,5bx,,2q6[8:1],,12,8h[8:3],,,5<8[4:1],,8>3[4:1],,3qq4[16:7],,4,,5-1b[8:1],,5b,4,3,2v5[8:1],,1,8,7-4<5[4:1],,5-8[8:1],,3,,2-4[8:1],5,2,,2-5b[8:1],4,2,,3,4-7[8:1],5,8-4[8:1],,1,2q6[8:1],,21,8,7,6bV84[4:1],,6x,5-1-3[4:1],,5x,4-8-6[4:1],,4x,3V15[4:1],,3x,4-1b[8:1]*<6b[8:1],,4bx,,7p3[8:1],,78,1h[4:1],,4,4>1[4:1],,1<6[4:1],,6pp5[8:3],,5,,4,,D5/3>8[8:1],,3,4v7[8:1],,4>5[4:3],D1,,,,4,,3,,2v5[8:1],,1<6[8:1]/A2,,1,4v1[8:1],,4<3[4:3],A6,,,,5,,6,,7,,8-6[8:1]/D3,,8,1-5[8:1],,1<2[4:3],D7,,,,8,,7,,6,,{16}5x,4,5,4,5,4,5,4,6x,4,5,4,5,4,5,4,7x,4,5,4,5,4,5,4,8x,4,5,4,5,4,5,4,7b-4-1-6-3p7[8:13],,,,
{4}A1f,,,,,,{16},,{8}4-2[8:1],,6-4[8:1],,1h[4:1],,3,4,5pp6[4:1],,,,{16}3,2,1<6[8:1],,,1,4-8[8:1],,,4,{8}5bx,,6v5[8:1],,3-8[8:1],,,4xh[4:1],,{16}1,5,2h[4:1],,,,6,3,7h[4:1],,,,5,6,4pp5[8:1]*q8[8:1],,,,,,,,14,,25,,36,,4x/7x<4[8:1],,,,3V14[8:3],,3pp4[4:1],,3,,,,,,,,,,{8}Cf,,B1/E2,E7/B6,4xV26[4:1],,6-1[8:1],6,,5,4-7[8:1],1,4,2>5[8:1],1,2,,7-3[8:1],8,7,,1<6[8:1],2,3-8[8:1],,,,{16}1x/5x,2x/6x,7x-3[8:1]/3x,,,,
{8},,1s5[1:1],,,,,,,,6xh[2:1],,,,Cf,,,,74,74,7p4[2:1]/4,,D3,,,,,3,3q5[2:1],,D7,,,,6,6,6pp1[2:1],,D5,,,,,2,2pp5[2:1],,D1,,,,7,7,7z3[2:1],,D4,,,,,2,2s6[2:1],,D8,,,,7x,8x,1xv4[4:1],,4p6[4:1],,,,,3,2v7[4:1],,6q4[4:1],,,,8x,1x,2xv5[4:1],,5q3[4:1],,,,,6,6v1[4:1],,3p5[4:1],,,,8x,7x,6xh[8:7],,D2/E2,,,,,3,3h[4:3],,D6/E6,,,,{32}5x-1b[16:22],6x,7x,,
{8},,,,,,,,,,,,,,,5h[4:3]/E2/A2/D2f,,,A4/D4f/E4,,,A8/A1/D1f/E1,,{12}6x,6x,8x,7x,1x,8x,2,2,4,3,3,5,{8}2b>5[8:1],,21,1b<6[8:1],,21,2b>5[8:1],,21,8bp4[8:1],,81,2b,{16}3x,4x,5x,6x,7x,8x,{8}1xb/D6f/A6/E6,,,A2/E3/D3f/7xb,,,D1f/A1/A8/E1/5bx<4[4:3],,,,,,,,,,7b<4[8:1],,78,8b>3[8:1],,78,7b<4[8:1],,78,1bq5[8:1],,18,6-2[8:1],7,8,8,1b-5[8:1],,18,,{16}7x,6x,5x,4x,3x-1[8:1],,,,7-3[8:1],,,,78,,,,1x,2x,3x,4x,5x-8[8:1],,,,1<6[8:1],,,,12,,,,4,3,2,1,8-4[8:1],,,,8/2V46[4:1],,,,6V82[4:1],,,,2-6[8:1],,,,,,,,{8}75,,38,,12,,46,,7-4[8:1],7,1-5[8:1],1,{16}6x,7x,8x,1x,2x,3x,4x,5x,6xh[2:1],,,,,,,,{24}B1,B2,B3,B4,B5,B6,B7,B8,E1,E2,E3,E4,E5,E6,E7,E8,E1,E2,E3,E4,E5,E6,E7,E8,A1,A2,A3,A4,A5,A6,A7,A8,A1,A2,,,{4},,,,,,,
{8}8p4b[8:1],,8b/1b,2,3,4v7[8:1],,43,2,1>4[8:1],,5-1[8:1]/1,,56,,7-5[8:1],8,7,,7-4b[8:1],5,7,,2,8-3[8:1],3,4-8[8:1],,5,6qq3[8:3],,7,8,1,2bqq1[4:1],,2x,7xqq6[4:1],,7x,4xqq3[4:1],,4x,7xpp8[4:1],,7x,8xw4b[8:1],,B8f,,3p7[8:1],,34,5h[8:3],,,8-6>5[8:1],,8-2>3[8:1],,8-4[8:1],,8,,1q5b[8:1],,1b/8b,7,6,5v2[8:1],,56,7,8<5[8:1],,4-8[8:1]/8,,43,,2-4[8:1],1,2,,2-5b[8:1],4,2,,7,1-6[8:1],6,5-1[8:1],,4,3pp6[8:3],,2,1,8,7b-4-7[4:1],,7x,1x-4-1[4:1],,1x,7x-5-7[4:1],,7x,1x-3-1[4:1],,1x,4x<6b[8:1]*-1b[8:1],,4b,,7-2[8:1],,73,4h[4:1],,1,1-6[8:1],,1-4[8:1],,1<6[8:1],,1>4[8:1],,1,,
6b<1[8:1],,56,4b-7[8:1],,43,2bq5[2:1],,,,6,,7,,8,,3b>8[8:1]/1,,3,5b-2[8:1],,56,7bqq8[2:1],,,,1,,2,,1-4[8:1],,1b/8b-5[8:1],,83,2b<7[8:1],,24,5bqq1[2:1],,,,8,,7,,6,,{16}5xh[4:1],,,,4,5,4,5,3x,5,4,5,4,5,4,5,2x,5,4,5,4,5,4,5,1x,5,4,5,4,5,4,5,8b,5,4,5,2b,5,4,5,7b,5,4,5,3b,5,4,5,1b,5,2,8,4,6,3,7,{32}1x,2x,3x,4x,5x,6x,7x,8x,1x,2x,3x,4x,5x,6x,7x,8x,1xh[2:1],,,,,,,,,,,,,,,,{1}D1f`8bx<8b[16:52]*<2[16:39]*<4b[16:26]*<6[16:13],,,,,E
