&title=Catch Me If You Can
&artist=Wuthering Waves
&first=0.37
&des=弦 スカイ
&lv_5=13+
&inote_5=(137.01)
{1}
,,
{16}
6h[16:3],,,5h[16:3],,,4,,
{8}
3h[16:2]/4h[16:2],,3h[16:2]/4h[16:2],,
{16}
3h[16:3],,,4h[16:3],,,5,,
{8}
6h[16:2]/5h[16:2],,6h[16:2]/5h[16:2],,
{16}
7h[16:3],,,8h[16:3],,,1,,
{8}
4h[8:1],8,5h[16:2],1,
{16}
2h[16:3],,,1h[16:3],,,8,,
{8}
5h[8:1],1,4h[16:2],8,
{16}
7h[16:3],,,6h[16:3],,,5<7-1[16:4],,
{64}
,,,,4,,,,,,,,,,,,3,,,,,,,,2,,,,,,,,
{16}
2h[16:3],,,3h[16:3],,,4>2-8[4:1],,
{64}
,,,,5,,,,,,,,,,,,6,,,,,,,,7,,,,,,,,
{16}
7h[16:3],,,6h[16:3],,,5<6-1[4:1],,
{64}
,,,,2,,,,,,,,,,,,3,,,,,,,,4,,,,,,,,
{16}
2h[16:3],,,6h[16:3],,,4h[64:40],,
{64}
,,,,,8b,,,,,,,,,7b,,,,,,,,,6b,,,,,,,,,
{16}
5,,3,4,3h[8:1],,6,5,6h[8:1],,2-6[8:1],,3/5,,,,,,5,4,5h[8:3],,4-8-2[8:2],,,,4,,6,,,,4,,
6,5,6h[8:1],,3,4,3h[8:1],,7-3[8:1],,6/4,,,,,,4,5,4h[8:3],,5-7-2-4[8:3],,,,5,,,,,,,,1>4[8:1],,8,,7,,6<1[8:1],,,6h[16:3],,,,,,,3,,3,,4<7[8:1]/2,,1,,2,,3,,,,8-4-6[8:2],,,2,,,3,,,,2-8[8:1],,3,,2/4,,5-8-6[8:2],,,1,,,2,,,,3,,1-5[8:1]/5h[8:2],,,,1-3[8:1]*-7[8:1],,,,1,,,,5,,4/6,,4v1[8:1],,3/5,,4bv7b[8:1],,,,4b,,,,2h[8:2],,3,,4,,5/1,,5/1q8[8:2],,,,,,7,,7<2>7<2>7[8:8]*p2q7p2q7[8:8],,,,,,,,A2f/E3/D3,,,,A7f/E7/D7,,,,A2f/E3/D3,,,,A7f/E7/D7,,,,
8-4[8:1]/4h[8:2],,,,8,,,,3/5,,4,,4-6<7[8:1]/6,,5,,4b-2<1b[8:1]/2,,,,4b/6,,,,7h[8:2],,6,,5,,4/8,,4/8-5-8b[8:5],,,,,,1-4[8:2],,1,,,,,,,,5h[8:1]/1h[8:1],,,8h[8:1]/4h[8:1],,,7h[8:1]/3h[8:1],,,,6/2,,8b/4b,,,,1h[8:6],,,,E8,,,,B7,,,,B6,,,,5h[8:6],,,,E4,,,,B3,,,,B2,,,,Ch[8:4]/A8/B8,,,,B7/A7,,,,A6/B6,,,,A5/B5,,,,Ch[8:4]/A4/B4,,,,A3/B3,,,,A2/B2,,,,A1/B1,,,,7,,7,,7,,7,,6/3,,6,,6/4,,6,5,6,,6/4,,6/4,,3,,3,,6/3,,5/3,,3,4,3,5,3,5,4,6,4,6,5,7h,1,5h,3,1h,5,7h,1b-5>4-8[4:2],,,,,,,,,,,,,,,,
{16}
1-4[8:1],,4/2,,1b,,,,8-5[8:1],,7/5-8<7p4b[8:8],,8b,,,,3,,3h[8:1],,,,2,,2-5[8:1],,,,A2,,,,
8-5[8:1],,5/7,,8b,,,,1-4[8:1],,2/4-1<7-3b[8:4],,1b,,,,6,,6h[8:1],,,,5<8[8:1],,4,,5/3,,2,,1,,1-6[4:1],,,,6-3b[4:1],,,,3-8[4:1],,,,8-5b[8:2],,8h[8:3],,,,,,,,7v5[8:1],,8,,1v3b[8:1],,8,,7,,6-2[8:2],,,,2>5b[8:2],,,,5-1[8:2],,,,1<6b[4:1],,1h[8:3],,,,,,,,2-4[8:1],,,,2/1,,8v5b[8:1],,7,,8b/1b,,,,3,4,2h[8:1],,6,5,7h[8:1],,2,4,3h[8:1],,7,5,6h[8:1],,3,4,3-7[8:1],,,,3/2,,1-5b[8:1],,2,,1b/3b,,,,
3,4,3,4,2h[8:1],,8,5,6h[8:1],,1,4,3h[8:1],,6,5,6,5,7h[8:1],,1,8,1,8,2>7[8:2]/7-4[8:1],,,,2x/7x>4[8:2],,,,5x-1[8:1],,,,5q8b[8:3],,,,4-1[8:1],,,,A4f,,,,,,1-4[8:1]/2,,,,1/8,,7w3b[8:1],,6,,7b,,,,6/5,,8-5[8:1]/7,,,,8/1,,2-7b[8:1]*q5[8:6],,3,,2b,,,,,,,,,,,,,,,,
6>3[8:2],,,,,,,,C,,,,,,,,3,,4,1,,,2,,5/C,,,,6,,4,,7/3h[8:4],,,,,,,,C,,3,,4,,5,,6/4,,7,5,,,4,,2/C,,,,,,,,
1-5[8:1]/2-5[8:1],,,,1/2,,,,4/3,,,4/5,,,6/5,,8-4[8:1]/7-4[8:1],,,,8/7,,,,5/6,,,5/4,,,3/4,,2-8[8:1]*-4[8:1]/3,,,,2,,,,3/5,,,4/6,,,5/7,,
7-1[8:1]*-5[8:1]/6,,,,7,,,,6/4,,,5/3,,,4/2,,1-6-8-5-2-4-1b[8:50],,,,,,,,A6,,,,,,,,,,,,,,,,A8,,,,,,,,,,,,,,,,A5,,,,,,,,,,,,,,,,A2,,,,,,,,,,,,,,,,A4,,,,,,,,,,,,,,,,A8/E8/D8,,,,,,,,,,,,,,,,C,,,,,,,,E2,,E6,,E3,,E7,,E4,,E8,,E5,,E1,,
5h[8:8],,,,,,,,B6,,,,,,,,7h[8:8],,,,,,,,B8,,,,,,,,1h[8:8],,,,,,,,B2,,,,,,,,3h[8:8],,,,,,,,B4,,,,,,,,4-6-3-7-2-8[8:26],,,,,,,,,,,,,,,,
{32}A8,D8,A7,,
{16},,,,,,,,,,,,,,
{32}A6,D6,A5,,
{16},,,,,,,,,,,,,,Ch[8:4],,,,,,,,,,,,,,,,6,,5,,4-1>2-7[8:4]/6h[8:2],,,,,,,,5,,,,6h[8:2],,,5,,,4/6,,3h[8:2],,,4,,,5/3,,6,,6,5,6,,4/6,,6,4,6,,5/4,,5/3,,
3,,3,4,3,,5/3,,3,5,3,,4/5,,4/6,,7,5,6,4,5,3,4,2h,8,4h,6,8h,4,2h,8,4h,6b-2<7-3b[8:4],,,,,,,,,,,,,,,,
{16}
8-5[8:1]/2,,5/7,,8b/1b,,,,1-4[8:1]/7,,2/4-1>2q5b[8:8],,1b/8b,,,,6,,6h[8:1],,,,7,,7-4[8:1],,,,A7,,,,
1-4[8:1]/7,,4/2,,5b/1b,,,,8-5[8:1]/2,,7/5-8>2-6b[8:4],,8b/4b,,,,3,,3h[8:1],,,,4>1[8:1],,5,,4/6,,7,,8,,
8>3[4:1],,,,3<6b[4:1],,,,6<1[4:1],,,,1>4b[8:2],,1h[8:3],,,,,,,,2-4<5[8:1],,1,,8-6>5b[8:1],,1,,2,,
3p7[8:2],,,,7p3b[8:2],,,,3-5-7[8:2],,,,7-1-3b[4:1],,7h[8:3],,,,,,,,7-5[8:1],,,,7/8,,1v4b[8:1],,2,,1b/8b,,,,6,5,B7/E8,,3,4,B2/E2,,7,5,B6/E7,,2,4,B3/E3,,6,5,6-2[8:1],,,,6/7,,8-4b[8:1],,7,,8b/6b,,,,
6,5,6,5,B7/E8,,1,4,E3/D3,,8,5,E7/D7,,3,4,3,4,B2/E2,,8,1,8,1,7<2[8:2]/2-5[8:1],,,,7x/2x<5[8:2],,,,4x-8[8:1],,,,4p1b[8:3],,,,5-8[8:1],,6,,A5f,,,,,,8-5[8:1]/7,,,,8/1,,2w6b[8:1],,3,,2b,,,,3/4,,1-4[8:1]/2,,,,1/8,,7-2b[8:1]*p4[8:6],,6,,7b,,,,,,,,,,,,,,,,
4b>1[8:1],,5,,6,,7,,8b<5[8:1],,1,,2,,3,,4b-7[8:1],,3,,2/4,,1,,8b-3[8:1],,7,,6/8,,5,,4b-6[8:1],,3,,2b-4[8:1],,1,,8b-2[8:1],,7,,6b-8[8:1]/8,,5,,6b-2[8:1]/4,,5,,6b/8,,7,,
{32}
3,4,5,6,7,8,1,2,7b/3b
,,,,,,,,
{16}
8-4[8:1]/7,,1/2,,1/8,,3-6-3[4:1],3,,7,7h[8:1],,A6,,A3,,
1-5[8:1]/2,,8/7,,1/8,,6-3-6[4:1],6,,2,2h[8:1],,A3,,A6,,
2/7-3[8:1],,3-5[8:1]/6,,7/4,,2-8-3[8:1],2,,6-8-5b[8:1],6,,,,,,
3,,4,,3/5h[16:3],,1,1,2/6-2[8:1],3/7,4/8,5/1,Cf,
