&title=Synthesis.
&artist=tn-shi
&first=0
&des=墓
&lv_5=14
&des_5=墓
&inote_5=
(180){4},{1},,,,{4},,{32},1>5[8:1],
,8,,1,,8,
,1,,,,,,1,2,3,,,,2,3,4,,,,3,4,5,,,,8,,,,2,,1,
,2,,,,8,7,6,,,,7,6,5,,,,6,5,4,,,,8,,,,,,7/2,,,,5/1,
2,3,,,,8/5,7,6,,,,1/7,2,3,,,,8/4,7,6,,,,2h[8:1],,,,4h[4:1],,,,5,
,6,,7,,8,,1/5,,6,,7,,8,,1/4,,5,,6,,7,,8/3,,4,,5,,6,
,7h[4:7]/1>4z8<5[2:3],{1},{4},,,{16},,,{32},4h[24:23]/8h[24:23],
{4},,,{16},,,{32},8xh[24:5]/4xh[24:5],
,,,,,,,7xh[24:5]/5xh[24:5],,,,,,,,6xh[24:5]/4xh[24:5],,,,,,,,3b/5b,,,,,,,,5/6h[16:1],
,,,4/6h[16:1],,,,6h[16:1]/3>1[8:1],,,,6h[16:1],,,,6h[16:1],,,,6h[16:1],,,,8/6h[16:1],,,,1/6h[16:1],,,,2/6h[16:1],
,,,3/6h[16:1],,,,6h[16:1]/4pp1[4:1],,,,7h[16:1],,,,7h[16:1],,,,8h[16:1],,,,8,,,,8,,,,2h[16:1],
,,,2h[16:1],,,,2h[16:1]/5<7[8:1],,,,2h[16:1],,,,2h[16:1],,,,2h[16:1],,,,8/2h[16:1],,,,7/2h[16:1],,,,2h[16:1]/6V48[4:1],
,,,1h[16:1],,,,1h[16:1],,,,1h[16:1],,,,1s5[8:1],,2,,3h[16:1],,,,1b,,,,,,,,3,
,,,6,,5,,6,,4,,5,,3,,8,,1,,6,,2,,4,,1,,4,,3,
,7,,5,,6,,5,,8,,3,,4,,3,,7,,4,,6,,5,,6,,3,,5,,4,
,6,,,,3/4,,,,7/6,,,,3/2,,,,8,,2,,6,,5,,7,,1,,4,,3,
,8,,,,8,,,,8h[16:1],,,,,,8h[16:1],,,,,,8,,,,8h[8:1],,,,,,,,1,
,,,3,,4,,,,6,,4,,5,,5-1[8:1],,3,,,,6,,5,,,,7,,,,8,
,,,1/2h[8:1],,,,,,2h[8:1]/1h[8:1],,,,,,3/7<4[8:1],,,,6,,5,,7,,,,1b,,,,3,
,,,4/6,,,,7-3-7[4:1],,8,,1,,2,,7,,,,4,,,,1,,,,3,,,,4/5,
,,,6/5,,,,7,,8,,7,,,,3,{96},2,,,,1,,,,{32}4,{96},3,,,,2,,,,{32}6,{96},7,,,,8,,,,{32}5,{96},6,,,,7,
,,,{32}4b,,,,4,,,,7,,8,,6,,,,3-8-2[8:1],,8,,,,8,,3,,,,7,,,,6b,
,,,4/3,,,,5>2[8:1],,6,,,,7,,5,,,,8,,7,,6,,,,6b/1b,,,,2,
,,,5/3,,,,7,,,,8/5,,,,4,,3,,2,,1,,4,,5,,6,,7,
,8<5[8:1]/2>5[8:1],,,,,,,,2b/8b,,,,,,,,1,{96},2,,,,3,,,,{32}4,{96},5,,,,6,,,,{32}7,{96},8,,,,1,,,,{32}2,{96},3,,,,4,
,,,{32}7b/5b,,,,,,,,8,,8,,5,,,,3,,3,,4,,,,5/3,,,,6/4,,,,8/1,
,,,7/2,,,,6b,,5,,6,,4,,6b,,5,,6,,7,,6b,,,,5/4,,,,2b/4b,
,,,2/4,,,,3,,4,,2,,,,7,,8,,6,,6,,4,,,,5,,,,7/8b,
,,,5,,6h[8:1],,,,4,,5h[8:1],,,,3,,4,,3,,5,,1,,,,1,,,,8b,
,,,6/5,,,,2>5[8:1],,,,5v8[8:1],,,,8V25[8:1],,7,,6,,,,6b,,,,,,,,8,
,,,7/5,,,,4,,3,,2h[16:1],,,,6,,7,,8h[16:1],,,,1b,,,,1,,,,6/5,
,,,4,,5,,,,7,,8,,,,2/8,,,,6/5,,,,4/3,,,,2h[2:1]/5h[2:1],,,,,,,,,,,,,,,,,,,,3/5,
,,,4/6,,,,8/1,,,,7/2,,,,4b/B6,
,,,,,5b/B2,,,,,,3b/E6,,,,,,7b/C,,,,,,1,,8,,1,,8,
,1h[4:1],,,,2,{96},3,,,,4,,,,{32}5,{96},6,,,,7,,,,{32}8,,,,8/1,,,,6,{96},5,,,,6,,,,{32}5,,,,7/4,,,,6b/E4,
,,,,,2b/B5,,,,,,6b/B2,,,,,,8b/C,,,,,,1,,,,1,,,,6,
,,,5h[8:1],,,,7,,8h[8:1],,,,6,,1x,2x,3x,4h[32:3],,,2x,3x,4x,{16}5h[32:3],{32},1,,,,2b,
,,,6,,5,,6,,,,4b/E8,,,,6,,5,,6,,,,4b/C,,,,B3,,,,6,
,,,6,,,,7,,8,,7,,1,,8,,1,,8,,2,,7,,,,7,,,,1/6bh[8:1],
{96},2,,,,3,,,,{32}4,{96},5,,,,6,,,,{32}7,{96},8,,,,1,,,,{32}2/7bh[8:1],{96},3,,,,4,,,,{32}5,{96},6,,,,7,,,,{32}8,{96},1,,,,2,,,,{32}3/8bh[8:1],{96},4,,,,5,,,,{32}6,{96},7,,,,8,
,,,{32}1bw5[8:1],,,,,,,,1,,,,,,,,2/E1,,,,,,3/E8,,,,,,4/E7,,,,5/E1f,
{1},,,{4},,,{16},,,{32},5-8[8:9]*>8[8:9],
{1},{4},,,{16},,,{32},8h[4:7],
{4},,,{16},,,{32},1h[4:1],
,,,,,,,,,,,,,,,2h[4:1],,,,,,,,,,,,,,,,3b,
,,,,,,,,,,,,,,,B6,{96},B5,,,,,,,,,,,,,,{32}B1/E2,,,,,,E3,,E4,
,E5,{96},,,,,,,,,,,,,D6/E6,,,,,,,,,,,,,,,,D7/E7,,,,,,,,,,,,,,,,{32}B8,{96},E1,{4},{96},{32}2xh[16:3],,,,,,1b,
,8,,7,,6,,5/1,,2,,3,,4,,7,,6,,5,,4,,6,{96},7,,,,8,,,,{32}1,{96},2,,,,3,
,,,{32}5,,6,,7,,8,,2,,4,,3,,4,,1,,4,,3,,4,,2,,5,,4,,5,
,3/6h[16:3],,,,,,,,6/5,,4,,3,,2,,1/8,,7,,6,,5,,8,,7,,6,,5,
,4,,3,,2,,1,,7,,6,,5h[4:1],,,,,,,,2,,3,,8,,7,,6,,5,
,2/4,{96},,,,,,,,,,,,,3,,,,,,,,{32}3,{96},,,,,8,,,,,,,,7,,,,,,,,{32}5/6h[6:1],{96},,,,,,,,,,,,,4,,,,,,,,,,,,,,,,5/3,,,,,,,,,,,,,,,,{32}A3,
,D4,,A4,,D5,,E3,,B3,,B4,,E5,,E1,,B8,,B7,,E7,,D1,,A8,,D8,,A7,
,4h[8:1]/D7,,,,,,,,4h[8:1],,,,,,,,4h[8:1],,,,,,,,4h[8:1],,,,,,,,6h[8:1]/4>2[4:1],
,,,,,,,6h[8:1],,,,,,,,6h[8:1],,,,,,,,6h[8:1],,,,,,,,1h[8:1]/6>4[4:1],
,,,,,,,1h[8:1],,,,,,,,1h[8:1],,,,,,,,1h[8:1],,,,,,,,4h[8:1]/3>1[4:1],
,,,,,,,4h[8:1],,,,,,,,4h[8:1],,,,,,,,4h[8:1],,,,,,,,1>3[8:1],
,,,8,,,,7,,,,6<8[8:1],,,,5,,,,4,,,,3,,,,3,,,,3>1[8:1],
,,,4,,,,5,,,,6>4[8:1],,,,7,,,,8,,,,1,,,,1,,,,1-6[8:1],
,,,2,,,,3,,,,4-1[8:1],,,,5,,,,6,,,,7,,,,8,,,,1/8,
,,,7/2,,,,6,,5,,,,3,,4,,,,5/3,,,,1h[8:1]/7h[16:1],,,,,,,,6h[8:1]/8h[8:1],
,,,,,,,7h[8:1]/5h[8:1],,,,,,,,6h[8:1]/4h[8:1],,,,,,,,6-3-8<5[4:3],,,,,,,,E5,
,,,,,,,C,,,,,,,,E2,,,,,,,,1h[8:1],,,,,,,,4h[4:3]/2h[8:1],
,,,,,,,2h[8:1],,,,,,,,3h[8:1],,,,,,,,3h[8:1],,,,,,,,4/3>8-5-2[2:1],
,,,,,,,B5,,,,,,,,E7,,,,,,,,E1,,,,,,,,8b,
,,,,,,,6/5,,4,,3,,2,,1/6,,5,,4,,3,,2/5,,4,,3,,2,
,1/8,{96},7,,,,6,,,,{32}5,{96},4,,,,3,,,,{32}1,{96},8,,,,7,,,,{32}6,{96},5,,,,4,,,,{32}3/7,{96},6,,,,5,,,,{32}4,{96},3,,,,2,,,,{32}1,{96},8,,,,7,,,,{32}6,{96},5,,,,4,
,,,{32}1b/3h[1:1],{4},,,{16},,,{32},1b,
,,,,,,,8/1,,,,,,,,7v4b[8:1]/1v4b[8:1],,6/2,,5/3,,,,7/1,,,,,,,,1b/7b,
,,,2,,2,,4,,3,,7,,,,2,,1,,2,,,,3b/8b,,,,6,,5,
,6/4h[8:1],,,,7,,,,3b-8[8:1],,6,,,,6,,3,,,,4-7[8:1],,5,,6,,,,1/4b,,,,2b,
,,,8,,8,,5,,7,,6/4b,,,,2,,5,,2,,,,4b/3b,,,,6/5,,,,8/1,
,,,3>8[8:1],,5,,,,7,,3,,,,5,,4,,6,,2,,8,,,,7b/1b,,,,6,
,,,3,,3,,4,,2,,8,,,,5,,6,,5,,,,7>2[8:1],,,,8/4,,,,7,
,,,4>1[8:1],,4,,,,7,,7,,,,8b,,,,8-3[8:1],,7,,6h[8:1],,,,8,,,,5b,
,,,2,,2,,7,,4,,8/5,,,,3,,4,,3,,4,,5/3b-8[8:1],,,,,,,,3b/5b-1[8:1],
,,,6,,,,5b/4<7[8:1]*>1[8:1],,,,,,,,4bw8b[8:1],,,,,,,,4b,,,,,,,,2b,
,,,8,,2,,7,,3,,6h[8:1],,,,1,,4,,1,,,,5b/2b,,,,3,,,,7b>2[8:1],
,,,1,,2,,7b<4[8:1],,,,3,,4,,7b,,,,1,,,,8/3,,,,6/5,,,,3b/5,
,,,2,,1,,3,,8,,5h[8:1],,,,6,,1,,6,,,,2b/6b<1[8:1],,,,7/1,,,,4/6b>3[8:1],
,,,3,,3,,6b,,,,1,,1,,8bh[8:1],,,,,,7bh[8:1]/1bh[8:1],,,,,,2b/6b,,,,5/3,
,,,4,,6,,3,,7,,2bh[8:1],,,,1,,2,,8,,3,,7h[8:1],,,,5b,,,,6/4,
,,,8/1,,,,7b,,5,,6,,5,,8b,,1,,6,,3,,5b,,,,6/4,,,,3b,
{96},2,,,,1,,,,{32}8,{96},7,,,,6,,,,{32}3b,{96},2,,,,1,,,,{32}8,{96},7,,,,6,,,,{32}3,{96},4,,,,5,,,,{32}6,{96},7,,,,8,,,,{32}1/6b,{96},5,,,,4,,,,{32}3,{96},2,,,,1,
,,,{32}6,{96},7,,,,8,,,,{32}5,{96},6,,,,7,,,,{32}3,{96},2,,,,1,,,,{32}4,{96},3,,,,2,,,,{32}8,{96},7,,,,6,,,,{32}5,{96},4,,,,3,,,,{32}8,{96},7,,,,6,,,,{32}5,{96},4,,,,3,
,,,{32}8b/2b>4q5<7[4:5],{1},{4},,{16},,,{32},8/1,
,8/1,,,,7/2,
,2/7h[16:3],,,,,,6,,,,,,2h[16:3],,,,,,3,,,,,,8,,,,8,,,,1h[8:1],
,,,3,,1h[8:1],,,,,,4,,,,8bh[16:3],,,,,,2h[16:3],,,,,,5h[8:1],,,,4,
,,,,,4,,,,,,6/1h[16:3],,,,,,5,{96},6,,,,7,,,,{32}8,,4,,,,3b/7b,,,,2,
,,,8,,,,3,,,,7b,{16}5b,{32},,,,,2,,,,3,,,,4,,,,7h[8:1]/5h[8:1],
,,,,,7h[8:1]/5h[8:1],,,,,,8h[8:1]/6h[8:1],,,,,,8h[8:1]/6h[8:1],,,,,,8/1,,,,1/8,,,,1,
,7,,1,,7,,2,,8,,2,,8,,3,4,5,6,7,8,1,2,3b/7b,,,,,,,,4/6,
,,,3,,1,,,,1,,8,,,,8,,6,,,,6,,5,,,,2/8,,3/7,
,4h[8:1]/6h[8:1],,,,,,,,7,,5,,6,,5,,7h[8:1],,,,,,6h[8:1]/8h[8:1],,,,,,1/5,,,,2/4,
,,,6,,8,,,,8,,1,,,,1,,3,,,,3,,4,,,,1/7,,,,1/7,
,2,,3,,4,,5,,6,,7,,8,,5/1<6[8:1]*>4[8:1],,,,,,,,1x,,,,,,,,2b/8b,
,,,,,,,6,,4,,6,,4,,5,,3,,5,,3,,4,,2,,4,,2,
,5,,1,,5,,1,,6,,8,,6,,8,,7,,1,,7,,1,,8h[4:1],,,,,,,,3b,
{96},4,,,,5,,,,{32}6,{96},7,,,,8,,,,{32}1,{96},2,,,,3,,,,{32}4x/7b,{96},6,,,,5,,,,{32}4,{96},3,,,,2,,,,{32}1,{96},8,,,,7,,,,{32}2b/6xh[4:1],,,,,,,,E5,
E6,E7,E8,E1,E2,E3,E4,E5,E6,E7,E8,E1,E2,E3,E4,C/B4/B5/E5f,,,,,,,,1b/8b,,,,,,,,7/2-4[8:1],
,,,,,,,1/2-6[8:1],,,,8,,,,2/7>2b[8:1],,,,,,,,2,{96},3,,,,4,,,,{32}5V37[4:1],,,,,,,,8,
,,,6-2[8:1],,,,,,,,4,,,,3bxh[4:1],,,,,,,,,,,,7h[8:1]/8h[8:1],
,,,,,5h[8:1]/6h[8:1],,,,,,3/4,,,,2/5,,,,,,1,,1,,4,,3,,5,
,2h[16:3],,,,,,8,,8,,5,,6,,4,,7xh[16:3],,,,,,8,,,,,,1/8,,,,2/7-5[8:1],
,,,,,,,8/7-3[8:1],,,,1,,,,7/2<7b[8:1],,,,,,,,7,{96},6,,,,5,,,,{32}4V62[4:1],,,,,,,,1,
,,,3-7[8:1],,,,,,,,5,,,,6bxh[4:1],,,,,,,,,,,,1b/8b,
,,,2,,1,,3,,8,,4,,7,,5,,6,,4,,5,,3,,4,,3,,4,
,2,,2,,6,,6,,4,,4,,8,,8,,2b,,1,,3,,7b,,8,,6,,4,3,2,
1,5b<8b[4:7]/8b>3b[4:7],
E
