&title=Psalms ~魂の還るばしょ~
&artist=qfeileadh&レゾナンスもえこ
&first=0
&des=Holinality
&clock_count=4
&des_5=Holinality
&lv_5=13
&inote_5=(96)
{4}
,,,
,,,
{144},
(64)
{12}
1<6[6:1]*>4[6:1],,,,,,
6h[8:6]/4h[8:2],,,,,,
3h[12:5],,,,,5,
3h[4:2]/5h[8:2],,,,,,
1-5[12:1],,,1>8[8:6],,3,
1,,,8,,,
3,,,5,,,
1b-4[12:1],,,1b-6[12:1],,,
1bw5[12:1],,1,1b,,,
(64)
{24}
4>1[12:1]/6,,,1,3,,
4<7[12:1],,,,5,,
4qq1[4:1],,,3,3,,
5<8[12:1]/4,,,,,,
5>2[12:1],,,4,4,,
5-8[12:1],,,,6,,
1qq3[4:1]/5,,,3,2,,
1,,,,,,
5<8[12:1],,,8,6,,
5>2[12:1],,,,4,,
5pp8[4:1],,,7,6,,
1>4[12:1]/5,,,,,,
1<6[12:1],,,8,8,,
4-8[12:1]/1,,,,3,,
8qq5[4:1]*pp3[4:1]/4,,,,,,
8b,,,,,,
{24}
,,,,,,
3h[64:1]/5,,,,,,
5h[64:1]/3,,,,,,
4/6h[64:1],,,,,,
6/4h[4:1],,,,,,
{48}
,,,,,,
,,,6,5,4,
{24}
3,,2/8,,1,8,2
,7,3,6,4h[12:4],,
5,,,,,,
5h[12:3],,,,,,
3h[12:4],,,,5,,
6,,7,,8,,
8h[6:1]/3h[6:1],,,,,,
,7,5,6,4,5,
3>1[12:1],,,,,,
7/3,,6,,5,,
{24}
3/5-7[12:1],,3,,3,,
3/5,,3,,3,,
3/1-6[12:1],,3,,3,,
3/1,,3,,3,,
3<6[12:1],,7,,7,,
3/7,,7,,7,,
7/1-5[12:1],,7,,7,,
7/1,,7,,7,1,
8-6[12:1],,2,,2,,
2/8-4[12:1],,2,,2,,
2/8<6[12:1],,2,,2,,
2/8,,2,,2,,
6/1-3[12:1],,6,,6,,
6/1-5[12:1],,6,,6,,
1/6,,7,7,4,5,
{24}
3,,3/5,,2/6,,
4/8,,2-6[12:1]/6-2[12:1],,,,
3<6[12:1]/7>2[12:1],,2/6,,,,
3/7,,,,4/8,,
2/6,,,,,,
2/6,,4-1[12:1]/8-5[12:1],,,,
2/6>6[6:3],,4/8,,,,
6,,1,,1,,
4,,3,,2,,
{24}
1-6[12:1],,6,,8,,
1-4[12:1],,4,,2,,
1<6[12:1],,6,,8,,
1,,2,,2,,
3<6[12:1],,7,,7,,
7p3[12:1],,8,,8,,
1-5[12:1],,2,,2,,
8-4[12:1],,7,,7,,
3>8[12:1],,2,,2,,
5-1[12:1],,6,,6,,
5/1w5[12:1],,3,,2,,
1b,,,,,,
{24}
4>1[12:1]/6,,,1,3,,
4/7-2[12:1],,,,6,,
7<4[12:1]/1pp4[12:3],,,4,2,,
1/7,,,,,,
5<8[12:1],,,8,6,,
5/2-7[12:1],,,,3,,
2>5[12:1]/8qq5[12:3],,,5,7,,
8/2,,,,2,,
4>1[12:1],,,3,3,,
4qq1[12:3]/6,,,,7,,
5<8[12:1]/4,,,6,6,,
5pp8[12:3],,,,2,,
2/5,,,,,,
1-4[12:1],,3,,2,,
1w5[12:1],,,,7,8,
1b,,,,,,
5<8[12:1],,,8,6,,
5/2-7[12:1],,,,3,,
2>5[12:1]/8qq5[12:3],,,5,7,,
8/2,,,,,,
4>1[12:1],,,1,3,,
4/7-2[12:1],,,,6,,
7<4[12:1]/1pp4[12:3],,,4,2,,
1/7,,,,8,,
8-5[12:1],,,5,7,,
8-3[12:1],,,,2,,
8<5[12:1],,,5,7,,
8>3[12:1],,,,1,,
8,,,5,7,,
8-5[12:1],,,,3,,
8/4>1[12:1]*<7[12:1],,,1,3,,
4,,,,4/6,,
2/8,3/7,,1/7,2/6,,
2/8,3/7,,1/7,2/6,,
3/5,,4/6,,5/3,,
{24}
6b/4>1[12:1],,,1,3,,
4-7[12:1],,,,5,,
4qq1[4:1],,,3,3,,
5<8[12:1]/4,,,,,,
5>2[12:1],,,4,4,,
5-8[12:1],,,,6,,
1qq3[4:1]/5,,,2,2,,
1,,,,,,
5<8[12:1],,,8,6,,
5>2[12:1],,,,4,,
5pp8[4:1],,,6,6,,
1>4[12:1]/5,,,,,,
1<6[12:1],,,8,8,,
4-8[12:1]/1,,,,3,,
4pp8[12:3],,,,,,
4b,,,,,,
1-5[12:1],,,,,,
1qq5[12:3],,,,8,,
1/3,,,,,,
4,,,,,,
(58)
5>2[12:1]*<8[12:1],,,,,,
(54)
5w1[24:42],,,,,,
5b,,,,,,
,,,,,,
,,,,,,
,,,,,,
,,,,,,
,,,,,,
,,,,,,
,,,,,,
,,,,,,
,,,,,,
,,,,,,
,,,,,,
,,,,,,
,,,,,,
,,,,,,
,,,,,,
E
