&title=Super Nova Project
&artist=shadow_bling
&first=0.03
&des=lhg
&lv_5=13+
&des_5=lhg
&inote_5=
(172){4},,,,{1}5<4[4:7]/4V26[1:1],
,6>7[2:3]*V42[8:7],
{8},,,,,,,,4h[2:1]/2qq5[4:11],
,,,,,,6h[4:1],
,,,,{2}6v1[4:5],
,,,C,
7h[4:1]/Cf,{4}1,1/B6,
1,1/B4,2-4[8:1],B7,
6,7/B5,8,8/B3,
8,8/B5,7-5[8:1],B2,
1h[4:1],B4,6h[4:1],B5,
2h[4:1],B1,6h[4:1],{8}4,3h[8:9],
,,{4}B6,{8}B4,B3,{4}B2,
{1}8xw4[8:5],
{4}6b/2bqq3[4:3],7,8,7,
6V48[4:3],4,3,2,
1-5[8:1],7,8-4[8:1],2,
{8}1,B4,1,B6,{2}1-6[8:1]/5-2[8:1],
{4}4pp8[4:3],8,1,2,
3V52[4:3],1,8,7,
6-8[8:1],1,2-4[8:1],8,
{8}7,B1,7,B5,{2}6<1[8:1]/2>5[8:1],
{4}3h[4:1],1,{16}2/4,,,3/5,,,{8}4/6h[8:3],
,8,{4}8,{16}7/5,,,6/4,,,{8}5/3,
{4}2h[4:1],1,{16}3/4,,,4/5,,,{8}5/6h[8:3],
,8,{4}8,{16}6/5,,,5/4,,,{8}4/3,
2,{16}6,5,{8}6,{16}3,4,{8}3,{16}5,4,{8}6,{16}3,4,
{8}2,{16}6,5,{8}7,{16}3,4,{8}1,{16}6,5,{8}8,{16}4,6,
4,8,4,6,3,7,3,5,{24}2,1,8,7,6,5,{32}4z8[8:7],3,2,1,8,7,6,5,
{1}4,
{8}7h[8:1],{16}1,1,{8}6h[8:1],{16}5,7,,,3,4,{8}2h[8:1],8,
7h[8:1],{16}8,8,{8}6h[8:1],{16}5,7h[16:3],,,{8}1,6h[8:1],{16}3,4,
{8}2h[8:1],{16}1,1,{8}3h[8:1],{16}4,2,,,6,5,{8}7h[8:1],8,
2h[8:1],{16}5,5,{8}4h[8:1],{16}8,8,{8}2h[8:1],4,6h[8:1],{16}5,7,
{8}3h[8:1],{16}4,4,{8}2h[8:1],{16}1,3,,,7,8,{8}6h[8:1],4,
3h[8:1],{16}4,4,{8}2h[8:1],{16}1,3h[16:3],,,{8}5,2h[8:1],{16}8,1,
{2}8bqq7[4:1]*>3[8:1],4bqq3[4:1]*<7[8:1],
{4}8bxqq1[4:1],1<5[4:1],4>8[4:1],4xq6b[4:7],
,,,,,,,1b,
3-8[8:1],3/7-4[8:1],{8}7-1[8:1],2,7,{16}3,3,
{8}6h[8:1],{16}1,1,{8}7h[8:1],5,8h[8:1],{16}1,1,{4}6-8[8:1],
6/1-5[8:1],{8}1/5,7,{16}8h[8:1]/6h[8:1],,,5h[8:1]/4h[8:1],,,{8}6/1>4[8:1],
,1/5,7,5/2,{16}6h[8:1]/5h[8:1],,,8h[8:1]/2h[8:1],,,{8}4/3,
{4}5-8[8:1],{8}1/5,3,{16}2-5[8:1],,,8,{8}2/8,6bxh[8:7],
,,,,,,,,{1}4>5<4[2:7],
,,,{8}5<1V74[16:23],
,,,,,,3-8[16:9],
,,,,,,,1>4[8:7]/5<8[8:7],
,,,,,,,,,,,,,,{4}6h[4:1],
Cf,7/E1,2,2/B6,
5,5/B8,{8}6,5,{4}7/4,
8,8/B1,2,2/B4,
{8}3,4,{4}5/2,7,7/C,
3h[4:1],4,{8}6,6,{4}6/5,
3h[4:1],4,{8}6,6,{4}6/5,
2h[8:1],{8}4/2h[8:1],4,5/3h[8:1],5,6/4h[8:1],6,
{16}7,5,{8}7,{16}8,1,{8}8,{16}2,3,4,5,6,7,8,1,
{4}E7f/2-5[8:1],2,{8}6-1[8:1],7,{4}6/4,
4/2-5[8:1],{8}2/6,7,8-3[8:1],7,{4}6/8,
5-1[8:1],5/4,{8}2<7[8:1],3,{4}2/4,
5-1[8:1],{8}5/8,6-8[8:1],,6/2,4,3/7,
{4}2/6-1[8:1],6/4,{8}2-5[8:1],3,{4}2/8,
8/6-1[8:1],{8}6/4,3,2<7[8:1],3,4/2,3,
2/6,2,4/6,4,6/2,{16}3,4,{8}3p1[1:1],5/2,
,,,,,,,,{4}6h[8:1],
6h[8:1],{8}7h[8:1],8,6h[8:1],5,
7,6,5,4,3,4,5,6/3,
{4}2h[8:1],2h[8:1],{8}3h[8:1],4,2h[8:1],1,
3,4,5,6,7/8,6,5/4,3,
{4}2h[8:1],{16}6,5,{8}6,7,{16}3,4,{8}3,5/2,
{16}8,1,8,1,{8}8,{16}3,4,{8}3,{16}6,5,{8}6,7/4,
{16}1,8,1,8,2,7,2,7,{32}3,4,5,6,7,8,1,2,3,4,5,6,7,8,1,2,
{4}3V58[4:1],8z4[4:1],4V28b[4:1],6,
7b-5[8:1],{8}3/7v4[8:1],2,1/7-1[8:1],2,3/7,4,
{4}5-2[8:1],{8}5/7-4[8:1],7,7/1V38[4:1],1,{4}1/5,
7-5[8:1],{8}7/1-3[8:1],2,4/1-5[8:1],5,6/1,7,
6h[8:1],5,4,{16}3,4,{8}2,8/1,6/5,3/4,
{4}2-4[8:1],{8}6/2v5[8:1],7,8/2-8[8:1],7,6/2,5,
{4}4-7[8:1],{8}4/2-5[8:1],3,2/8V61[4:1],8,{4}8/4,
2-4[8:1],{8}2/8-6[8:1],7,5/8-4[8:1],{16}3,3,{8}8,2,
{4}5xh[4:3],{8}6,6,{4}6-3[8:1],6bx,
{8}2V48[4:1],5/4,2/7-5b[8:1],5-1[8:1],7,1,3,7-1[8:1],
5/4,7/2-4[8:1],4,2/6,8-4b[8:1],6/2-8[8:1],8,2,
{4}5v7[8:1],{8}5/4V28[4:1],3,4/8-3[8:1],7,6,5,
4-8[8:1],3-1[8:1],4-6[8:1],3,{4}4w8[8:1],4x,
{8}7V51[4:1],4/5,7/2-4[8:1],4-8b[8:1],2,8,6,2-8[8:1],
4/5,2/7-5[8:1],5,7/3,1-5[8:1],3/7-1b[8:1],1,7,
{4}3bxh[8:1],{8}4bx/8bx,8/4,3bx/7bx,{16}3V16[4:1]/7V52[4:1],2/6,{8}5bx/1bx,3bx/7bx,
,,{4}8bx-3[8:1]/4bx-7[8:1],{2}4bxw8[8:1],
{4}6/2-5[8:1],{8}2/1,8,7,{16}4,5,{8}3qq8[8:3],1,
{4}3/4,{8}5,6,7>2[8:1],6,{4}5/7,
4-6[8:1]/3-7[8:1],4/3-1[8:1],3/8-6[8:1],{8}8/2,2,
1/7,3/4,2/8,{16}6,5,{8}7-3b[8:1],1/8,{16},,2,2,
{4}4-6[8:1],{8}4/2,3,2,1/8,3/7-5[8:1],4,
2/7-1[8:1],3,1/7qq4[8:3],2,{4}7/3-1[8:1],3,
{8}2-4[8:1],2,5,6,7,{16}8,5,{8}8,6/4,
{4}1/5h[2:1],2,3-6[8:1],3/1,
{24}1b>4[8:1],8,7,6,,,{8}1/5,5,6,{16}7,5,{8}7,8,
8/1,{16}2,4,{8}3,{16}6,5,{8}7-4[8:1],8-3[8:1],7,8,
{24}5bx>2[8:1],6,7,8,,,{8}5/1,1,7,{16}2,5,{8}2,1,
8/7x,4/6-1[8:1],2/1x,6/4,3-7[8:1],4-6[8:1],3x,4x,
{24}8b<5[8:1],1,2,3,,,{8}8/4,4,2,{16}1,4,{8}1,5,
6/4-7[8:1],8,4/2-4[8:1],1-5b[8:1],2-6[8:1],1-7b[8:1],2,1,
{24}5bx<8[8:1],4,3,2,,,{8}5/1,1,3/7bx,{16}3bx-8[8:1]/7-4[8:1],6/2,{8}5bx/1,3bx/7,
,2/6,4/3,{16}6,5,7,1,4,2,6b,4b,8b,5b,
{1}E1f/B8/B1,
E
