&title=SUPERNOVA
&artist=BACO
&first=0.1
&des=snowynightLE
&lv_5=13+
&inote_5=(150){1},
{16}2<7[2:1]/6h[16:3],,,,,,5h[16:3],,,,,,4,,,,
8>3[2:1]/4h[16:3],,,,,,5h[16:3],,,,,,6h[8:1],,,,
4>1[2:1]/7h[16:3],,,,,,6h[16:3],,,,,,5,,,,
2>5[2:1]/4h[16:3],,,,,,6,,6h[8:1],,,,7h[8:1],,,,
7p2[2:1]/1,,,2,,,3,,,4,,,5,,,,
1qq7[2:1]/5,,5,,5,,,4,,,3,,3,,2,,
5p8[2:1]/2,,,3,,,4,,,4,,,5,,,,
7p4[2:1]/4,,,3,,,2,,,2,,,1,,,,
1b/7b,,2,6,,6,3,,3,7,,7,4,,4,,
1/3,,1,4,,4,8,,8,5,,5,7,,7,,
2b/6b,,3,5,,5,1,,1,7,,7,3,,3,,
4/8,,7,4,,4,5,,6/4h[32:1],,3/7h[32:1],,8/2h[32:1],,1h[32:1],,
2b/7b,,6,4,,4,5,,5,3,,3,7,,7,,
2/8-5[8:1],,3,,4/8,,,4-1[8:1],,,6,,6,,5,,
6/1,,4,,8/3,,5,,6/8,,4/5,,1/3,,4/5,,
3,6,3,6,4,5,4,5,3,6,3,6,4,5,4,5,
3/6,,2,4,2,,2h[8:1],,8-3[8:1],7,6,,5h[8:1],,,,
6/3,,7,5,7,,7h[8:1],,1-6[8:1],2,3,,4b,,4b,,
2/7,,3,1,3,,3h[8:1],,5-2[8:1],6,7,,8h[8:1],,,,
7/2,,6,8,6,,6h[8:1],,3,2,1,8,7,6,5,,
3/8,,4,6,4,,3h[4:1],,1>4[8:1],8,7,,6h[8:1],,,,
2/5-8[8:1],,3,,4/5,,,3-7[8:1],,,7,,6,,5,,
6/1,,5,3,5,,6h[4:1],,8<5[8:1],1,2,,2h[8:1],,,,
2,3,2,3,2,4,2,4,2,5,2,5,2,6,2,6,
4/7,,3,8,3,,1/2h[4:1],,4q1[8:1],5,6,,7h[8:1],,,,
5/2,,6,1,6,,8/7h[4:1],,5pp7[8:1],4,3,,2b,,2b,,
1/6,,2,5,2,,4/3h[4:1],,1q5[8:1],8,7,,6h[8:1],,,,
8/3,,7,4,7,,5/6h[4:1],,8,1,2,3,4,5,6,,
{8}6/8,8,4/8,8,2/8,8,{16}1,8,1,8,
{8}2/7,2,2/5,2,2/3,2,{16}1,8,1,8,
2b,6,4,6,4,6,4,6,1b,5,3,5,3,5,3,5,
8b,4,3,4,1b,5,4,5,2b,6,5,6,3b,7,6,7,
{4}4bV27[1:2],,,,7,,6,,
5V38[1:2],,,,,,5,,
6V41[1:2],,,,1,,8,,
7-3[1:1],,,,,,7,{8}6,6,
6/3bv1[2:1],,6,,6,,6,,
6/8,,6,2,6,,6/4,,
6/5qq8[1:1],,6,,6,,6,,
6,,6,,6,,6,6,
6/1v4[2:1],,6,,6,,6,,
6/3,,6,1,6,,6/7,,
6/5qq1[1:1],,6,,6,,6,,
6,6,6,6,6,6h[16:1],6h[16:1],6h[16:1],
{16}3/7,,,8,3,,1<6[4:1],,3,,,,3,,,,
3/7,,,6,3,,5<8[4:1],,3,,,,3,,,,
3/1,,,8,3,,7<4[4:1],,3,,,,3,,,,
3/5,,,6,3,,5<8[4:1],,3,,,,3,,,,
2/7,,,5,2,,3q8[4:1],,2,,,,2,,,,
2/1,,,4,2,,6pp5[4:1],,2,,,,2,,,,
2/4,,,7,2,,1V74[4:1],,2,,,,2,,,,
2/6,,,8,2,,3<8[4:1],,2,,,,2,,,,
1/3,,,2/4,,,1/3,,1/3,,,4/8,,4/8,,,
5/7,,,6/8,,,5/7,,5/7,,,8/4,,8/4,8/4,,
1/2,,,3/4,,,1/2,,1/2,,,3/7,,3/7,,,
5/6,,,7/8,,,5/6,,5/6,,,7/3,,7/3,7/3,,
1/8,,,7/3,,,1/8,,1/8,,,2/6,,2/6,,,
4/5,,,3/7,,,4/5,,4/5,,,2/6,,2/6,2/6,,
1,7,1,7,2,6,2,6,3,5,3,5,4,6,4,6,
5,5,6,6,7,7,8,8,1,1,2,2,3,3,4,4,
{16}2/5,,6,1,6,5,7h[8:1],,5,4,3,2,1/4,,1/4,,
1,,2/8,,3/4,,2/5,,4/5,,5/7,,1/8,,2/4,,
7/4,,3,8,3,4,2h[8:1],,4,5,6,7,8/4,,8/4,,
2/6,,7,1,7,5,8v5[8:1],,6,5,4,3,2,1,8,,
6/1,,2,5,3,1,4h[8:1],,1,8,7,6,5/1,,5/1,,
3/7,,7,4,6,8,5h[8:1],,8,1,2,3,4/7,,4/7,,
2/5,,3,7,2,4,1h[8:1],,4,5,6,7,8/3,,8/3,,
8,1,8,1,7,8,7,8,6,1,6,1,5,2,5,4,
{1}3b>8[4:1],
{16}3b>6[2:1],4,3,4,,,,,5h[8:1],,,4h[8:1],,,5,,
3b>4[4:3],,,4,,,5,,,,,,,,,,
,,,,8<4[4:1],,,,4,,,3,,,2,,
6/1,,,,6/1-5[4:1],,1,,6,,,,6,,,,
3/6,,,,3/4-8[4:1],,4,,3,,,,3,,3,,
1/2,,2,,7/8,,7,,5/6,,5/6,,3/4,,3/4,,
3/5,,1/2,,4/6,,7/8,,4/5,,3/8,,4/5,,6/1,,
2,4,2,4,8b,4,2,4,2,4,2,4,7b,4,2,4,
3,5,3,5,1b,5,3,5,3,5,3,5,7b,5,3,5,
4,6,4,6,2b,6,4,6,4,6,4,6,8b,6,4,6,
5,7,5,7,2b,7,5,7,5,7,5,7,1b,7,5,5,
6,4,6,4,6,4,6,4,8,3,8,3,8,3,8,3,
5,2,5,2,5,2,5,2,7,3,7,3,7,3,7,3,
8,2,8,2,6,5,6,5,7,1,7,1,4,3,4,3,
6,6,5,5,4,4,3,3,2,2,1,1,8,8,7,7,
6,5,4,3,2,1,8,7,{32}2,3,4,5,6,7,8,1,2,3,4,5,6,7,8,1,
{4}2bV47[1:2],,,,7,,8,,
1V36[1:2],,,,,,1,,
8V25[1:2],,,,5,,6,,
7-3[1:1],,,,,,E
