&title=Sunlit toybox
&artist=juggernaut. & しーけー
&first=0
&lv_5=14.6
&des_5=AtNN
&inote_5=
(146){4},,{8}2v3[0##0.2055],6h[8:5],{4},{2}4/D5/D4,
5h[4:3],
7/D8/D7,4h[4:3],
3/D3/D4,{12}5,4,,3,4,5,
{4}D7/D6/6<1<7[6:1],{8}6,A8/D8/E8/D1,{4}5x/4x,{8}7/5,5,
4/3,2,{4}2/4,4,{8}4/5,5,
5,7,4,5,6<8[0.6164##1.0274],{16}1,2,3,4,{8}5,
{4},{24}A7,D8,D8,D8,A8,A8,{12}D8/D1/A8f/2-6[0.137##0.137],2,1-5[0.137##0.137],1,8-4[0.137##0.137],8,
{32},3,2,1,8,7,6,5,4,3,2,1,{8}8,8b/1b,1h[4:1],{4}7,
{12}2-4[8:1],1-5[0.4795##0.2055],1,2,{24},{8}1,{4}4h[4:1],5h[4:1],
{12}7h[12:1],6h[12:1],5h[12:1],3h[6:1],{6}4h[12:1],{24}3bx/4bx,{12},{24}4/3,{12},{8}5/2,{24}4,3,,{6}3-1-7<5<8[0.274##0.411],
3,,6bxh[4:1]/5bxh[4:1],,6h/5h,
{8}4h/2h,2,3,4,{16}3bh[4:1],5,,A5/B5,{4},{8}8/7-5[8:1],
8-4[8:1],8/7bx,8,{4}5h[8:3],4h[8:1],
{8}6pp2[0.2055##0.2055],6,3v1[4:1],5v7<5[0.6164##0.411],{4}3,5,
4-2[0##0.2055],{16}4,3/5,6,7,{8}7-3[0##0.2055],1-5[0##0.2055],{16}6bh[2:1],A5/D6,,,,D7,
,,,,,5x,{2}4h[8:9],
{8}6>5p6[0##0.411],{4},{8}3>2[0##0.2055],{16},,,3,2,1,{8}8/7,
6h[8:5]/3>2p3[0.2055##0.2055],3,,7-1[0##0.2055],{4},{12}6/4,4,3,
3/5,5,6,4/6,6,7,{4}7V15p2[8:3],{8}7,Cf,
{4},{8}4h[8:1],5h[8:1],{4}6bh[2:1],8,
{16}2h[24:1],3h[16:3],{8},{16}1h[24:1],2h[8:1],{12},{24}3,4,{4},{24}7,8,1,2,3,
{16}4h[24:1],5bxh[16:3],{8},{16}1bxh[24:1],8bxh[16:3],{8},{16}6bxh[24:1],5bxh[16:3],{8},{4}6,
{8}7b/6b,6/5,3h[2:1]/4-6[0.8219##0.1027],2-4[0##0.2055],{4},4,
4b/2b/D4/D3,6b/5b/D7/D5,{24}8bh[16:1]/1bh[16:1]/D8/D2,D8/D2,{6},{8}6,B5,
6,B5,6,B4,5,E7,5,B6,
5,B6,5,B6,4bx,B3,4,B3,
4,E3,4,E3,4,E3,4,B2,
4,B2/E2,3,B5/B6,{4}3,{8}3bx/4bx,3,
4/3-6[8:1]*-7[8:1],4,{4}3,{8}6bx/5bx,5,7bx/5bx,8-5[0.2055##0.1027]*-3[0.2055##0.1027],
{16}8,{8},{16}2,{8}3/5,5-8[0.2055##0.2055]/4-1[0.2055##0.2055],{4}4-2[8:1]/5-1[8:1],5<1[8:1]/4>8[8:1],
5-8-4[8:1]/4-1-5[8:1],5bx/4bx,{8}6x,{16}6,6,,4,,3,
3-6[0.1027##0.1027],3,{8},{16}2-6[0.1027##0.1027],2,{8},{16}8bx-4b[0.6164##0.1027]*q4b[0.6164##0.1027],8,{4},{8}8b,
6x/5x,7/5,{16}4h[16:1]/5h[8:1],{8},{16}7h,5h[8:1],4h,,7h,5h[8:1],4h,,7h,
{4},{16}3x,4x,5x,6x,{8}7-2[8:1],2-4[8:1],,4-6[0.2055##0.2055],
{4},{16}6xh[8:3]/3v2b[8:1],3x,{8},{16}3x,{8},{16}2xh[16:5],{4}1xv2b[0.2055##0.2055],
{8},{16}5x,5x,5x,5x,{8}5x,6-3[0.2055##0.2055],7-3[8:1],8-4[0.6164##0.2055],7,
,8,{4}A4h[8:1],5bxh[16:1]/4bxh[16:1],{16}1bh[16:1]/3bh[16:1],{8},{16}7x/5x,
{8}7x/5x,7bh[16:1]/5bh[16:1],,6h[8:1],{4}4h[8:9],{24}8,1,2,3,,5,
6,7,8,1,2,3,,5,6,7,8,1,{4}2-6[12:1],2,
4h[8:1],{8}6h[8:1],2bh[8:1],{4}7xp3b[0##0.137],Cfh[8:5],
{2},{8}5h[8:5],{24}4,,6,{32}7,8,1,2,3,4,,6,
7,8,1,2,{8}3,{12}5,5,4,{8}4-2[0.2055##0.2055],2-7[0.2055##0.2055],{4}7<6[0.2055##0.2055],
,{8}3bxh[2:1]/5v6[0.2055##0.2055],5,{4},{8}7bh[4:1],8v7[0##0.2055],
{4},{16}7-3[0##0.2055],{8},{16}4x,{8}5x,6/5,5,5/3,
7,5,6,4,{16}4-2[12:1],4,{8},{12}2-8[0.137##0.137],,D1f/A8f/D8f/A1f,
{8},,,5h[8:1],{24}6h[24:23],7,8,1,2,3,4,5,,7,8,1,
2,3,4,5,,7,8,1,2,3,4,5,{2}6x-8-2-4[0##1.4384]*-4-2-8[0##1.4384],
,{8}5bx,5,5-3[8:1]*-2[8:1],5-8[8:1]*-7[8:1],
5,5,,5-1[0##0.2055],{16},3x,3x,3x,{4}3x,
{8}3-6[4:1]/2-7[4:1],6p2[0.6164##0.411]/7q3[0.6164##0.411],,,,{24}B1/B4,B2/B3,E3,{4}A2/A3,
{8}8-5[0.2055##0.2055]/1-4[0.2055##0.2055],1/8-6[8:1],,1-3[8:1]/8-4[8:1],,8-6[8:1]/1-5[8:1],,8p4b[8:1]/1v3b[8:1],
,,,A5/A4,{4}5bh[8:1]/4bh[8:1],{12}4,{24}5,7b-3[0##0.2055],,,,,,{8}5bh[8:1]/4bh[8:1],
,{24}5,4,,{4}2b-6b[0##0.2055],{8}4h[4:1],5h[8:1],
{4},4/5,1x-3[0##0.137],8x-3[0.137##0.137]/7x-4[0.137##0.137],
7x-3[0.137##0.137]/6x-4[0.137##0.137],{8}5,5,{12}1-5[0.137##0.137],1x,,8-4[0.137##0.137],8x,,7-3[0.137##0.137],
7x,,6-2[0.137##0.137],6x,,1b-5b[0##0.137],A5f,{3},{1}Cfh[1:2],
{4},,,,,{24}5x,
4x,5x,4x,5x,4x,{4}5x-1[8:1],6x-2[8:1],
7x-3[8:1],7,{8}5bx/4bx,3,4/5,3,
{4}2/4,4,{2}2p1<4p3[4:1],
{8}A3f,{4},{8}4h[8:1],{4}5h[1:1],{24}6,7,8,1,2,3,
{12}4,{24}6,7,8,1,2,3,{12}4,{24}6,7,{2}8>4v2<6[0##1.0274],
{4},7b-3b[0##0.2055],{16}5bxh[4:1]/4bxh[4:1],{4},{16}4bxh[16:1]/2bxh[16:1],,2bxh[16:1]/4bxh[16:1],
,3bxh[16:1]/5bxh[16:1],,5bxh[8:1]/3bxh[8:1],{8},6bxh[8:1]/4bxh[8:1],,4bh[8:1]/6bh[8:1],,6bh[8:1]/4bh[8:1],
,{16}5,4,3,2,{8}3,{4}3>7b[0##2.6712],{8}B5,E5,
{4}B6,6>4[0.2055##0.411],,2q4[0.2055##0.411],
,{16}7x,6x,5x,4x,{8}3x,3x>5>3[0##1.2329],{4},{2}6bx>3[0##0.6164],
{16}2-4[0##0.1027],{8},{16}1-5[0##0.1027],{8},{16}8-4[0##0.1027],A4f/D4f/D5f/A3f,
{4},{8}5h[8:1],4h[8:9],{4},{24}3,2,1,8,7,6,
{12}5,{24}3,2,1,8,7,6,{12}5,{24}3,2,{4}1bh[2:1],2>4b[0##0.2055],
7bh[2:1],6-3[12:1],{2}6b-3b[0##0.137],
E
