&title=Rebirth of the MYTH
&artist=s-don
&first=0
&des=GAHOU
&lv_5=14
&inote_5=(155)
{1},
{8},,,,,,6v8[8:1]/3v1[8:1],,
{1}6b<4[4:3]/3b>5[4:3]`Cf,
{16},,,,1h[4:1],,,,4h[16:3],,,2,5,,3,,
{1}6-2[4:3]/4,
{16},,,,8h[4:1],,,,4h[16:3],,,5,3,,4,,
{1}3-6[4:3]/2,
{16},,,,1h[4:1],,,,5h[16:3],,,2,6,,3,,
{1}8p6[8:5]/4p2[8:5],
{32}Ch[2:1],,,,,,,,,,,,,,,,E2,B2,,,E7,B6,,,3,,4,,3,,4,,
{16}5h[8:1]/2h[8:1],,,5h[8:1]/2h[8:1],,,6/3,,B7f/5b-1[8:1],,,,,,,,
{16}8h[8:1]/2h[8:1],,,8h[8:1]/2h[8:1],,,1/3,,B2f/4b-8[8:1],,,,,,,,
{16}7h[8:1]/1h[8:1],,,8h[8:1]/6h[8:1],,,5/3,,B2f/4b-7[8:1],,,,,,,,
{16}8h[8:1]/1h[8:1],,,4h[8:1]/2h[8:1],,,6/3,,B7f/5b-2[8:1],,,,,,,,
{16}8x,1,4,2x,6,5,7x,8,7,8,5x,4,5,4,5,4,
{16}7x,3,4,1x,6,5,8x,1,4x,3,4,3,5x,2,5,2,
{16}6b,4,6,4,7b,5,7,5,8,2,4,1,6,5,7,1,
{16}8b-4[8:1],,,,8`C,,{32}B2,B3,E4,,7,,5,,6,,,,4w8[8:1],,,,3/5,,,,
{16}4b,,,,7x/1x-5[8:1],,2,,1-3[8:1],,6-8[8:1],6,1-5[8:1],,6,,
{16}1,,7,,5x,6,5,6,7-3[8:1]/4,,8,1,7<4[8:1]*>2[8:1],,2,,
{16}7b,,,,4x/3-1[8:1],,2,,4/3v8[8:1],,5,5,3-5[8:1],,6,,
{16}3,,7,,5x,6,4,7,3,,{24}8,7,6,5<8[8:1]/1>4[8:1],,,8,,,
{16}5b/1b,,,,8x-4[8:1],,3,3,8-6[8:1],,1,1,8,,2q6[8:1],,
{16}1/5,,2,,7-5[8:1],8,7,8,7-1[8:1],,2,2,7-3[8:1],,4,,
{16}7b,,,,6-1[8:1]/4,,5,4,6-4[8:1],,3-7[8:1],3,6,,3,,
{16}6,,2,1,3,8,4,7,3,5,2,6,1v4[8:1]/7v4[8:1],,8,,
{16}1b/7b,,,,2,6,3,5,4-2[8:1],,6V48[4:1],6,4,,6,,
{16}2x,,1,,7,5,6,5,7-5[8:1],,8-4[8:1],1,7>2[8:1],,8,,
{16}7b,,,,4,6,3,5,2,4,3,5,4,6,5,7,
{16}Ch[4:1],,,,{48}E7,B6,B5,B4,B3,E3,,,,,,,{16}8b/1b,,,4b/3b,,,5b/6b,,
{16}Cf/B7/B6/B2/B3,,,,2x-4[8:1],,5,5,2-6[8:1],,8-6[8:1],8,2,,8,,
{16}1,1,2,2,3,3,4,4,5>2[8:1],6,5<8[8:1],6,5x,,5x,,
{16}2x,,2/1,,4,5,,5/6,,7,7/8,,1,8,1,8,
{8}1>4[8:1],,7-3[8:1]/1,,7/5-1[8:1],,6/5,7,
{16}8<5[8:1]/4>1[8:1],,,,8-3[8:1]/4,,,,8-5[8:1],,7,,8,,1,,
{24}5x,6,7,8,,,2-6[8:1],,,8/3,,,2,,,,,,7,,,3,,,
{16}5<8[8:1]/1>4[8:1],,,,5/1-6[8:1],,,,1-4[8:1],,2,,1,,7,,
{48}5,,,,,,8,,7,,6,,5v8[8:1]/3v8[8:1],,,,,,2,,,,,,5/3,,,,,,,,,,,,1,,,,,,1,,,,,,
{16}6<1[8:1]/2>5[8:1],,,,6/2-6[8:1],,,,2,,3,4,3,,5,,
{24}1-5[8:1],2,3,4-8[8:1],,,1,,,4,,,6,,,,,,2,,,2,,,
{48}7<4[8:1]/3>8[8:1],,,,,,,,,,,,7-3[8:1]/3,,,,,,,,,,,,7,,,,,,6,,,5,,,6,,,,,,2x,,3,,4,,
{24}5,,,1x,2,3,{16}4,,1,,8,8,6,6,4,,3,3,
{16}5xh[8:1]/2xh[8:1],,,,3,4,3,1,3,5,3,7,3,4,3,1,
{16}3,6,5,6,8,6,4,6,2,6,5,6,8,6,5,6,
{16}7xh[8:1]/4xh[8:1],,,,8,2,4,2,8,2,4,2,6,2,4,2,
{16}7,3,5,3,1,3,5,3,7,3,5,3,1,3,5,3,
{16}6xh[8:1]/4xh[8:1],,,,3,7,5,7,1,7,5,7,3,7,5,7,
{16}2,6,4,6,8,6,4,6,2,6,4,6,8,6,4,6,
{16}3xh[8:1]/5xh[8:1],,,,2,4,2,7,2,5,2,1,2,4,2,7,
{16}C,,5x,3,6,2,7,1,8,2,1,2,8,3,7,4,
{1}E6/B6/B5/Cf,,
{2}3<1[8:5],C,
{2}6>8[8:5],C,
{4}2qq5[8:5],E1,E7,E6,
{4}7pp4[8:5],E1,E3,E4,
{4}1-5[8:5],E8,E3,B6,
{4}8-4[16:1],,5xs1[8:1]/4xz8[8:1],5b/4b,
{8}3bV15[4:1],,,B7f,,,,,
{8}6bV84[4:1],,,B2f,,,,,
{8}4bv7[8:1],,,B2f,,,,,
{8}1bv4[8:1],,,B7f,,,,,
{8}7b-2[8:1],,,Cf,,,,,
{8}4b-1[8:1],,,Cf,,,,,
{8}8bs4[4:1],,,E2f,,,,,
{8}1bz5[4:1],,,E8f,,,,,
{4}8h[8:1],8h[8:1]/1h[8:1],2h[8:1],2h[8:1]/4h[8:1],
{4}6h[8:1],7h[8:1]/5h[8:1],3h[8:1],2h[8:1]/4h[8:1],
{8}1/2,1/2,3/4,3/4,5/6,5/6,7/8,7/8,
{16}1,6,2,5,3,8,4,7,5,,7-3[8:1],8,,,7,,
{16}4xb,5x,4,6,4,7,4b,8,4b,5,4,6,4,7,4b,8,
{16}3b,5,3,6,3,7,3b,8,3b,5,3,6,3,7,3b,8,
{16}2b,5,2,6,2b,7,2,8,1bx,5,1bx,6,1bx,7,1bx,8,
{16}1xhb[4:1],,,,{32}E7,B6,B5,,E3,B3,B4,,{16}8w4b[8:1],8,,,8b`Cf,,,,
{16}2<7[8:1]/5x,,3,4,2,,6,6,5,7,4,8,3,4,2,6,
{16}5,7,2,4,1w5[8:1],8,2,7,1b,,,,5x,3,6,4,
{16}7>2[8:1],,6,5,7,,4<7[8:1],5,3,,4,,3,3,1,1,
{16}4x,8,3,7,2-6-2[4:1],6,1,5,,,,,7,7,8,8,
{16}1x>4[8:1],,2,8,1,,6,6,5,7,1,8,2,4,3,5,
{16}4-8[8:1],,3,5,2-4[8:1],,1,,2,,{24}1-5[8:1],8,7,6,,,1,,,
{16}6h[8:1],,,5h[8:1]/2h[8:1],,,{24}3,4,3,4,,,6,5,6,5,,,7/4,,,
{16}8,3,4,2,5,,6/3,,7b-4[8:1]/2b-5[8:1],,8/1,,7b/2b`Cf,,,,
{16}7>2[8:1],5,6,5,7,,4,4,5,3,6,2,7,1,{32}8b,7x/1x,6x/2x,5x/3x,
{8}4x,Cf/B6/B7/B3/B2,{24},,,1/7b,6,5,4,,,8-4[8:1]/2b,3,4,5,,,8,,,
{16}2<7[8:1],4x,3,4,2,,6,6,5,7,4,6,3,5,2,4,
{16}1<6[8:1],,4-8[8:1],4,1-3[8:1],,4,,1V73[4:1],,,1x,1x,,2b,,
{16}1v4[8:1]*v6[8:1],,1,,1b`Cf,,,,3,5,2,4,1,8,2,7,
{16}1-5[8:1],,8,2,7-4[8:1],,6,,7,,{24}8-4[8:1],1,2,3,,,8,,,
{16}2h[8:1],,,5h[8:1]/3h[8:1],,,{24}7,5,6,5,,,2,4,3,4,,,5/2,,,
{16}3,5,4,6,5,7,1,8,{32}2x,3,4,5,1,2,3,4,8,7,6,5,8,7,6,5,
{8}3bV15[4:1]/4b-8-6[4:1],,,Cf,,,,,
{8}7bv4[8:1]/1bv4[8:1],,,B4f,,,,,
{8}2b-8[8:1]/1b-5[8:1],,,B5f,,,,,
{8}5bs1[8:1]/6bz2[8:1],,,E2f,,,8/3,,
{16}5,6,5,6,4,7,4,7,1,8,1,8,3,4,3,4,
{16}2,1,2,1,5,6,5,6,8,7,8,7,1,6,1,6,
{16}2,,3/5,,6,,4/7,,5,8,5,8,{32}5b,6,7,8,1,2,3,4,
{16}8h[2:1],,B7,,B8,,B1,,B2,,B4,B5,E7/B7,,B2/E3,,
{1}5b-8b[8:5]/4b-1b[8:5],
{1}Cf/B7/B6/B2/B3/B8/B1/B5/B4,,
