&title=Sister,Friend,Lover
&artist=松来未祐/柚木凉香
&first=0.03
&des=Hatsune
&lv_5=12+
&inote_5=(136)
{1},,
{8}7>2[4:4],,,,,,,,
{8}3<6[4:4],,,,,,,,
{8}7-3[4:4],,,,,,,,
{8}2-6[4:2],,,,,,,,
{8}8h[4:4],,7,,6,,5,,
{8}1h[4:4],,2,,3,,4,,
{8}8,,76,,23,,18,,
{8}4,4,4,4,36,45,1b/8b,,
{8}2-5[4:1],,8,,8-3[4:1],,6,,
{8}6-1[4:1],,4,,4-7[4:1],,2,,
{8}2>5[4:1],,5<8[4:1],,8>3[4:1],,4-8[2:1],,
{8},,,,1h[4:2],,,,
{8}7-4[4:1],,1,,1-4[8:2],,6,,
{8}8-5[4:1],,4,,2-5[4:1],,7,,
{8}1h[4:2],,,,8h[4:2],,,,
{8}7<4[4:2],,,,,,,,
{8}1h[8:2],,8-3[8:2],8,,4,4,,
{8}8h[8:2],,1-6[8:2],1,,5,5,,
{8}1h[8:2],,7>2[8:2],7,,4,4,,
{8}5,6,5-2[8:2],6,,1,1,,
{8}7h[8:2],,6-1[8:2],6,,4,4,,
{8}2h[8:2],,3-8[8:2],3,,5,5,,
{8}5h[8:2],,6>3[8:2],6,,1,1,,
{8}84,15,26,37,,45,1b/8b,,
{8}1h[8:3],2,3,4,2-5[8:1],2,,8,
{8}1-4[8:1],1,,1,8>3[4:1],8,,,
{8}8h[8:3],7,6,5,7-4[8:1],7,,1,
{8}8-5[8:1],8,,8,1<6[4:1],1,,,
{8}1h[4:1],2,3h[4:1],4,5h[4:1],6,7h[4:1],8,
{8}1,,3>8[4:1]/7<4[4:1],,,,,,
{8}8h[4:1],7,6h[4:1],5,4h[4:1],3,2h[4:1],1,
{8}5,5,5,5,7,1,34,45,
{8}5-2[8:1]/6,,1,8,7>2[8:1],,5,6,
{8}7<4[8:1],,1,8,7,6,5,1,
{8}2/3-7[8:1],,1,2,3<6[8:1],,1,8,
{8}7,,1,,8/2-6[8:1],,2/8-5[8:1],,
{8}8>3[8:1]/4<7[8:1],,,,6-3[8:1]/8,,6/8-5[8:1],,
{8}8/1-4[8:1],,1-6[8:1],,1,,3<6[4:1],,
{8}6-1[4:1],,1-4[4:1],,4-7[4:1],,7>2[4:1],,
{8},,,,27,45,1b/8b,,
{8}7>2[8:1],,4,5,6-1[8:1],,8,7,
{8}6>3[8:1],,8,1,2,3,4-7[8:1],8,
{8}7>2[8:1],,5,4,3-7[8:1],,1,2,
{8}3,,8,,3/7-4[8:1],,7/5-1[8:1],,
{8}8<5[8:1]/5>2[8:1],,,,3-7[8:1]/1,,3/2-5[8:1],,
{8}2/1-6[8:1],,3/1-4[8:1],,71,,7<4[4:1],,
{8}4-7[4:1],,7-3[4:1],,3-8[4:1],,8<5[4:1],,
{8}4,4,4,4,3-7[8:1]/7,15,7>2[1:1]/3<6[1:1],,
{1},,
