&title=William Tell Overture but I got distracted and it became a disaster
&artist=Mingchi
&first=0.003
&des=Bzz
&clock_count=4
&wholebpm=154.8964
&des_5=Bzz
&lv_5=e
&inote_5=(154.8964)
{1},,
{4}1,{8},{16}1,1,{4}1,{8},{16}5,5,
{8}5/4,3,1/2,8,7/5,4,5/3,5/3,
5`3,4`2,5`3,6`4,8`2,5`4,7`1,5`4,
{4}1,{8},{16}1,1,{4}1,{8},{16}5,5,
{24}3b,5,3,5b,3,5,4b,6,4,6b,4,6,
2b,8,2,7b,1,7,2b,8,2,7b,1,7,
{8}2h[2:1],{40}1,8,7,6,5,{8}4,3,
7h[2:1],8,{40}6,5,4,3,2,{8}1,
{14}1,1,1,1,1,1,1,
{84}8/E2,,,,,,8,E3,,,,,8,,E4,,,,8,,,E5,,,8,,,,E6,,8,,,,,E7,8,,,,,,
{1}6h[1:1]/3h[1:1],
{128},,
(140)
{4},3,3h[2:1],{8},2,{1}2<7-3<6[4:3],
{4}2h[2:1],8,8h[2:1],{8},2,
{1}2-4v5-7[4:3],
{2}1h[2:1],{4}3h[8:3],{8},
(170)
{16}4,4,{8}2-7[8:1],
{16}5,5,{8}2-5[8:1],
{16}6,6,{8}2,8,7h[8:1],
{16}5,5,{8}6-2[8:1],
{16}4,4,{8}6,
{16}3,3h[16:5],
{32}8,7,6,5,4,,2,1,
{8}8,
{16}3,4,{8}2,
{16}6,5,{8}7,
{16}4,5,{8}3,8/2,7/1,
{16}6,4,{4}8bh[16:5],
{16},3,7,3,{8}7>2[8:1],6/4,3/7,
{16}3,3,{8}3,
{16}5,5,{8}5,
{16}4,4,
{96}5b/4b,6b/3b,7b/2b,8bh[96:9]/1bh[96:9],,,,,,,,,
,7b/2b,6b/3b,5bh[96:9]/4bh[96:9],,,,,,,,,
,6b/3b,7b/2b,8b/1b,,,,,,,,,
{16}2,2,{8}2,
{16}8,8,{8}1,
{16}8,2h[16:5],{32}8,1,,3,4,5,6,7,{8}8,
{16}2-4[8:1],8,{8}2,
{16}5,6,{8}7,
{16}8,8,
{32}2,1,,,2,1,,,2,1,,,
{16}6/3,7/2,{4}8b/1b,
{16},2,3,4,{8}6/5,8/1,5/3,
{16}6/4,6/4,{8}6/4,{16}5/3,5/3,{8}5/3,{16}6/2,6/2,
{18}6,7,6,{72}6,7,8,1,{18}7,6,7,6,7,
{16}8/2,8/2,8/2,8/2,{8}5/3,5/3,6/4,6/4,7/2,
{16}8/1,8/1,{8}8/1,{16}8/1,7/2,{8}6/3,{16}8/1,8/1,{8}8/1,
{16}8/1,7/2,{8}6/3,{16}8/1,8/1,
{8}3b-8b[85#16:1]/5b,1/7v4[85#16:1],4V61[85#16:1]/6,28,3b/5,7,2,
{16}3,4,
(120)
{4}7h[4:3]/5h[4:3],,,{8},6/4,{2}5h[4:3]/3h[4:3],
{4},{8},{64},,,{32}6,5,
(420.69)
{6}4/3,3/2,1/2,8/1,7/8,6/7,
{4}6/5,5/3,8b,C/B1/B2/B3/B4/B5/B6/B7/B8/E1/E2/E3/E4/E5/E6/E7/E8/D1/D2/D3/D4/D5/D6/D7/D8,
2-5[8:1],6-1b[8:1],3-8[8:1],7-4b[8:1],
1q5[8:1],6q2b[8:1],4p8[8:12],
{8}6-1[8:1]/5-2[8:1],6/5,{4}6/5,{8}6v1[8:1]/5v2[8:1],6/5,{4}6/5,
{8}1-5[2:1],7qq3[4:1],{4}4s8[80:1],2h[1:1],2,6,
6qq1-5-1-5-1-5-1-5<6qq1[4:3]/4pp1-5-1-5-1-5-1-5>4pp1[4:3],6A,6A/D6,A1f,
{8}8/2b,3,4b,5,1/6b,5,4b,3,8/2b,3,4b,5,1/6b,5,4,3,
7b/2,6,5b,4,3b/8,4qq8[1:10],5,6,7/2b,3,4b,5,1/6bqq2[8:1]*pp2[8:1],5,4,3,
5b,6,4b,3,6b,7,3b,2,6b,7,3b,2,7b,8,2b,1,
7b/8b,E8,6b/7b,E7,6b/5b,E6,5b/4b,E5,
2,5,4,7,1,6,3,8,2,5,4,7,1,6,3,8,
{8}4/7/E8f/B7,5,4,5,4,5,4/1/E1f/E2,5,4,5,4/A8f/C,5,4,5,4,5,4/A4f/D4/A3,5,4/B8f/B3/B5/A6/1,5,4/B8f/A8/D8/D1`8,5,4/4/4/4/4/4/4/4/4/4/4/4/A4f,5,,,
{32}2<2<3[32:7],1,8,7,6,5,4,3,2,1,8,7,6,5,4,3,
{8}5/4,5/3,{4}5/2,{8}5/4,5/3,{4}5/2,
{8}5/1,7/3,{4}2/B2/B5/B6/E6,7/E7/D8/D7/B7/E8/E4/D4,5/4/D6/D5/D4,
{8}A1,E1,
{8}3,4,2,6,5,7,3,4,{16}2,6,5,7,
{16}3,4,1,6,5,8,3,4,1,6,5,8,
{4}3,{8}5,1,{4}6,4,
{16}8-4-8-4-8-4-8-4-8-4-8-4-8-4-8-4-8-4-8-4-8-4-8[8:1]/1,82,83,84,85,86,87,81,87,86,85,84,{4}83,
15,3,84,6,
{8}3-6[1:19],4,3,4,2,1,8,7,6,5,6,5,7,8,1,2,
4,5,4,5,3,2,1,8,5,4,5,4,6,7,8,1,
45,45,45,45,45,36,27,18,C/A7f,C/A6f,C/A5f,C/A4f,C/A3f,C/A2f,C/A1f,C/A8f,
(110)
{8}5/4h[8:1],1,5h[8:1]/4,8,5/4h[8:1],2,5h[8:1]/4,7,
5h[8:1]/4,2,5/4h[8:1],7,5h[8:1]/4,3,5-1[32:3]/4h[8:1],6,
{4}Cf/B1/B2/B3/B4/B5/B6/B7/B8,{16}35,35,35,35,{8}64,64,35,35,{4}71,
{16}82,82,82,82,{8}71,71,
{32}2,3,4,5,6,7,8,1,
(220)
{32}2,3,4,5,2,3,4,5,2,3,4,5,2,3,4,5,
{8}68,1,42,
{32}5/B1,,B2,,6/B3,7,8/B4,1,6/B5,7,8/B6,1,6/B7,7,8/B8,1,6/B1,7,8,1,
{8}42,5,64,7,
{32}8,1,2,3,8/B1,1,2/B2,3,8/B3,1,2/B4,3o,8/B5,1,2/B6,3,
{16}5/4/B7,B8,{8}6/B1,78,1,
{32}2,3,7,6,2,3,7,6,2,3,7,6,2,3,7,6,
{16}64,,52,,7/3/B1,B2,1/8/B3,
B4,3/4/B5,B6,5/B7,B8,{8}5/B1,5,64,7,18,2,
5/3,4,{16}4,B1,4/B2,B3,6/5/B4,B5,7/B6,B7,8/2/B8,B1,{8}3,
45,{16}7-4[8:1],2,{8}3-8[8:1],7,3,{16}6-3[8:1],1,{8}2-7[8:1],6,{16}2,B1,5-2[8:1]/B2,8/B3,1-6[8:1]/B4,B5,5/B6,B7,1/B8,B1,
{16}73,84,{8}15,37,
1>5[440#4:1],5<1[440#4:1],1>5b[440#4:1],5<1b[440#4:1],
1V75[440#4:1],5V31[440#4:1],76,34,
{16}2/E8,,3,E5,4,E8,5,E5,6,E8,7,E5,8,E8,1,E5,
{4}1b/2b/3b/4b/5b/6b/7b/8b/D1/D2/D3/D4/D5/D6/D7/D8,{8},
{16}2b/5bv5v5v5v5[1:1]/B8/E8/E1,7bv7v7v7v7v7v7v7[2:1]/4b/E7/D5/D4/E3,{8}1b/8b/D1/E1/E8/B8/B1,5b/3b/A4,8b/4b/C/E7/E3/A6,6b/3b/E6/B5/B4/E4,
{4}7b/2b/E8/E2,{8},{16},
{64}81,72,63,54,
{32}1b/2,B1,,B2,,B3,,B4,,B5,,B6,,B7,2,B8/3,
(120)
{32}4,B1,{16},,7,7p3[8:1],,,2,2-5[8:1],,,,{4}6<6b[1:1],
(160.19890604)
{32}6,,,,,{64},{16}B1,B2,B3,B4,B5,B6,{64}B7,B8,D2,D1,D8,D7,D6,D5,,,,,,
{4},,,,
4pp1[8:1]/6qq1[8:1],
E
