&title=雑踏、僕らの街
&artist=TOGENASHI TOGEARI
&first=-0.187
&des=nameless
&lv_5=14+
&des_5=nameless
&inote_5=
(171){4},{16},,,,,,,,,,,,1-5[8:13],
8,1,8,1,8,1,8,1,8,1,8,1,8,1,8,
1,8,1,8,1,8,1,8,1-5[8:1],8,1,8,{4}1b,
{16}8h[16:3],,,7h[16:3],,,{8}6h[16:3],{16},5h[16:3],,,{8}4,3h[8:1],
{16}2h[16:3],,,1h[16:5],,,{8}8,,5-1[8:1],4,5,
{16}2,3,4,5,8,7,6,5,3,2,1,8,4,5,6,7,
1/8,2,3,4,6/5,7,8,1,3,5,4,6,5,7,6,8,
2,6,8,4,1,5,3,7,2,6,8,4,1,5,3,7,
{1}2h[2:3],
{4},,7-3[8:1],7,
{16}2,4,3v8[8:1],5,{8}4,3,{16}7,5,6-2[8:1],4,{8}5,6,
{16}3,1,2,8,1,7,8,6,5,7,4,6,3,5,2,4,
2,1,2,1,3,8,3,8,4,7,4,7,5,6,5,6,
3,4,2,6,5,7,3,4,2,7,8,6,2,4,8,6,
{8}3>6[1:1],,,,,,,B1,
{16},B8,,,{8}B7,{16}2,3,{2}4>7[1:1],
{8},,,B2,{16},B1,,,{8}B8,{16}6,5,
{8}4<1[0.3509##1.4035],,,,,,,B3,
{16},B4,,,{8}B5,{16}2,1,{2}8>6[1:1],
{8},,,2,{16},3,,,{4}4,
2h[4:1]/5v8[8:1],{16}5b,,,1,{8}7,1,{4}8h[4:1]/2v5[8:1],
2b,{16}6-1[8:1],,,5,{8}6,5,{16}6-1[8:1],,,5,
{8}6,5,6h[4:1],4,{16}4,3,2,1,5/8-4[8:1],,,5,
{4}8,5h[4:3]/3-7[8:1],3,8-4[8:1],
8,{16}4/3qq7[2:1],,,4,{4}3,{16}5,,,5,
{8}5,{16}8,7,1,6,{8}8,7/8,7/8,{16}8,7,1,6,
{8}8,{16}1,7,8,7,1,6,,2,{8}5,{16}3,4,3,4,
,3,{8}4,B3,B4,B2,B5,{16}B1,B6,,B8,
{8}B7,B8,{16}7,8,6,1,,5,{8}2,{16}4,3,4,3,
,4,{8}3,B4,B7,B2,E1,{16}2v5[8:1],1,3,1,
{4}2,{8}8b/1h[4:1],2,2,1b/8h[4:1],7,7,
5b/4h[4:1],3,3,4b/5h[4:1],6,6,7b/1h[4:1],3,
3,2b/8h[4:1],6,6,7b/1h[#0.5263138],B1,B2,B3,
C/E5,C/E6,C/E7,C/E8,C,C,C,C,
{24}7,6,{12}5,{24},,1-5b[8:1],2,3,7,,,{4}1b/8b,{8}4/6,3,
{16}6,5,,3,{8}4v1b[8:1],3/6,{4}4b/5b,{8}2/8<5[8:1],1,
8/2-4[8:1],4<2[1:1],{4}2,4,5,
6,{16}7v5[8:1],6,{8}5-3[8:1],7,1-5[8:1],,1,
8-4[8:1],7/1,{4}8,{16}3,4,2,5,3,4,2,5,
{8}3-7[8:1]/4-8[8:1],2/5,{4}3b/4b,{16}1,6,3,4,1,6,3,4,
{8}8-4[8:1]/7-3[8:1],6/1,{4}7b/8b,{8}2b/5h[8:7],8,6b,4,
2b,8,6b,4,{16}4,5,4,5,4,5,4,5,
4,5,4,5,{32}4,3,2,1,8,7,6,5,{4}4/8b,{8}7/4,6,
{16}3,4,,6,{8}5-8b[8:1],6/3,{4}4b/5b,{8}7/1>4[8:1],8,
1/7-5[8:1],5>7[1:1],{4}7,5,4,
3,{16}2v4[8:1],3,{8}4-6[8:1],2,8-4[8:1],,8,
1-5[8:1],2/8,{4}1,{8}1/2-5[8:1],8/3,2b/1b,{16}6,4,
6-2[8:1],4,{8}6,{4}4b/6b,{16}1-5[8:1],8,1,8,{8}1,{16}6,4,
{8}3qq1[8:1]/7pp1[8:1],6/4,{4}7b/3b,{8}7b/4h[8:7],1,3b,5,
7b,1,3b,5,{16}5,4,5,4,5,4,5,4,
5,4,5,4,{32}5,6,7,8,1,2,3,4,{16}5/1bv6[8:1]*v4[8:1],,,8,{4}1b,
{16}5,4,,3,{8}4,{16}3,4<7[8:1],3b,,,4b/2x,{32},,,,4b/6x,3x,2x,1x,
,,,,{8}8-4[8:1],1,8,{16}3,5,,5,{8}3,{16}4,3,
5,2,{8}6,1v4[8:1]/7v4[8:1],2/6,{16}1b/7b,,,8b,{32},,,,1b/7b,2x/6x,5x/3x,4x,
,,,,{8}3,3qq7[2:1],4/2,3,{16}4,4,,6,{8}6,
{16}8,6,,4,{4}6pp2[2:1],{8}6,{16}5,5,,3,{8}3,
{16}1,3,,5,{4}3,{8}4/5,3/6,2/7,1/8,
{16}1,8,1,8,1,8,1,8,{2}2h[4:5]/7h[4:5],
{4},,,,1-5[8:1]/8-4[8:1],
1b/8b,{16}2,6,3,5,{8}4,4,
{16}7,3,6,4,{8}5,5,{16}4,7,4,7,3,6,3,6,
2,5,2,5,2,1,8,7,6,5,4,3,5,2,5,2,
6,3,6,3,7,4,7,4,6,1,6,1,6,5,8,1,
5,4,8,1,4,3,8,1,{2}5q3q1q7q5[4:11],
{4},A3,,,A1,
,,A7,
,,{2}3>6[8:15],
{4},B2,,,B7,
{16},,,,,,,,4bh[8:1]/5bh[8:1],,,3bh[8:1]/6bh[8:1],
,,{8}2bh[16:1]/7bh[16:1],{4}1bv4[8:1]/8bv5[8:1],8/1-3[8:1],1/6-2[8:1],
{8}4/6V48[8:1],1,{4}6/3h[4:1],{8},,5-8[8:1],6,
{4}5/1v6[8:1],{8}1/8,8h[8:3],,7,{4}7>2[8:1],
{16}7,6,5,4,{4}3-7[8:1],{8}3-6[8:1],5,{4}3/8-5[8:1],
{8}8>5[8:3],1,{4}8,{16},,,,2-5[8:1],,,1,
{8}2-6[8:1],1,2,8,4/7,{16}5,6,{8}5,4/7,
{16}5,6,4,7,5,6,3,8,5,6,2,1,{8}3/8-6[8:1],7<6-4[4:1],
{4}8,{8}3-1[8:1],2<1-7<6-4>3-1[8:9],{4}3,{8}B2,B4,
B8,B6,{16}B5,C,{8}B1,,B3/B2/E3,5-7[8:1],6<7-1[4:1],
{4}5,{8}2-4[8:1],3<4-6<7-1[8:5],{4}2,{8}B3,B1,
B5,B7,{16}E6,B5,B4,E4,{8}6/C,7/3,7b/4h[4:1],3,
3,2b/5h[4:1],6,6,2b/4h[4:1],5,6,7b/5h[4:1],
4,3,4b/2h[4:1],8b,6b,5b/7h[4:1],1b,3b,
5bh[16:1]/4bh[16:1],3bh[16:1]/6bh[16:1],2bh[16:1]/7bh[16:1],8bh[16:1]/1bh[16:1],1h[16:1]/8h[16:1],8h[16:1]/1h[16:1],1h[16:1]/8h[16:1],8h[4:1]/1h[4:1],
{32},,,,,,,,1/8,2,3,4,5,6,7,8,1,2,3,4,5,6,7,8,1,2,3,4,5,6,7,8,
{8}5/1,{16}2,8,{8}1-5[8:1],8,1/8,{16}7,4,{8}6-2[8:1],4,
6/3v8[8:1],4,3/7-4[8:1],6,3/7,1,5/8-4[8:1],7,
8/1-5b[8:1],2,6/1,7,8/4,1,6/2-4[8:1],5,
2-7[8:1],6,2-5[8:1],5,2-8<7[8:1],7,2,5,
{16}6h[8:1],,,4h[8:1],,,{8}2h[8:1],{16},8h[8:1],,,{8}8,4,
{16}4/2,,,3/1,,,{8}2/8,{16},1/7,,,{8}6/8-4[8:1],7/5,
1-5[8:1],2,6-3[8:1],7,4-1[8:1],5,6-8[8:1],7,
{16}1,2,3,4,5,6,7,8,{8}5/1,3/7,{16}2,6,3,7,
4b,8,4,8,4,8,4,8,4,8,4,8,4,8,4,8,
4,8,4,8,4,8,4,8,4,8,4,8,4,8,4,8,
{8}1/5,1/5,8/4,4/8,{16}3v1[8:1]/7v5[8:1],2/6,{8}5<8-4[4:1]/1>4-8[4:1],{4}3/7,
{8},,,,1-5[8:1],2/8,{4}1,
{16}3,5,2,4,3,5,2,4,{8}3-7[8:1]/4-8[8:1],2/5,{4}3/4,
{16}3,6,1,4,3,6,1,4,{8}3-7[8:1]/4-8[8:1],2/5,{4}3/4,
{8}1/6,{16}4,3,{8}4,5/2,{16}3,4,{8}3,2/5,1/6,
{32}8/7,1,2,3,4,5,6,7,{4}8/4<7[8:1],{16}8,1,2,3,4,5,6,7,
{8}8h[4:1],,,7,{16}7-3[8:1],4,{8}6,7/1-5b[8:1],2,
1/8,7,6/2,3,7<4[8:1]/3>8[8:1],3/7,{4}7p3[8:1],
{16}5h[16:3],,,2,{8}5-1[8:1],5,5/1,{16}3,8,{8}2,1,
1/2-5[8:1],3/8,{32}2b/1bv7-4[8:3],8,7,6,,,,,{2}3v8b[8:1],
{8}8/7-4[8:1],6/1,8b/7b,{16}3,5,2-6[8:1],5,{8}3,{4}2b/5b,
{16}8-4[8:1],7,8,7,{8}8>3b[8:1],7<4b[8:1],8b,7b,{16},,,,1,
8,3,8,6b,8,1b,8,3,8,6,8,1b,8,3b,8,
6,8,1,8,3b,8,6b,8,{32}1b,2,3,4,5,6,7,8,{8}1b/5b,2,
{16}3,4,,6,{8}5,5/4,{16}4,5,4,5,3>8[8:1],6,,6,
3b,{32},,,,3b/1x,4x,5x,6x,,,3b/5x,2x,1x,8x,,,,,{8}8/1-4[8:1],2/7,1/8,
{16}5,5,,3,{8}3,2/1,{16}1,2,8,2,1<6[8:1],2,,2,
1b,{32},,,,1b/7x,2x,3x,4x,,,1b/3x,8x,7x,6x,,,,,{8}4/5,4/3,2/3,
{16}2,1,2,1,3,4,,6,5,,,7,{8}8,1/8,
{16}7,8,7,8,6,5,,3,{8}4,2/3,3-7[8:1]/2-6[8:1],1/4,
{1}2b<3[2:1]/3b<2[2:1],
{8}3/1-5[8:1],{16}8,2,{8}1,4,{16}3-7[8:1],5,4,5,{8}3,6h[8:5],
,,,,{4}1w5[8:1],1b/Cf,
{8}1-4[8:1],{16}8,8,{8}1-6[8:1],{16}5,5,{8}1-3[8:1],{16}7,7,{8}1-7[8:1],{16}4,4,
{8}1-5[8:1],{16}5,5,{8}1-6[8:1],{16}6,6,{8}1-4[8:1],{16}4,4,{8}1,{16}5,5,
{1}1h[4:5],
{4},8w4[8:1],8b/Cf,{16}2,6,2,6,
1,7,2,6,3,5,4,4,2,8,3,7,4,6,5,5,
3,4,2,5,1,6,8,7,5,6,4,7,3,8,2,1,
2,2,3,3,4,4,5,5,6,6,7,7,8,8,1,1,
2,3,4/8,7,6/1,2,7/3,6,5/2,3,4/8,7,6/1,2,7/3,6,
{8}5/4,4/5,6/7,7/6,8/1,8/1,2/3,2/3,
4/5,4/5,5/6,7/8,1/2,4/3,5/6,7/8,
{16}2b-5b[16:1],,,7b-3b[16:1],,,{8}4b-8b[16:1],{16},2b-5b[16:1],,,7b-4b[16:1],,,1b,
{32},,,,1b/7,2,{16}3,{32},,7b/2,6,{8}5,{32}2b/6,3,{16}4,{32},,3/8b,7,{8}6,{32}4b,3/5,2/6,1/7,
{1}8,
E
