&title=またおいで
&artist=可不/South&
&first=0
&des=Num_
&lv_5=13
&des_5=Num_
&inote_5=
(53.333){4},,,,,1-5[12:1],
2-6[12:1],3-7[12:1],
4-8[12:1],5-1[12:1],6-2[12:1],7-3[12:1],
8-4[12:1],1-5[12:1],2-6[12:1],3-7[12:1],
4-8[12:1],5-1[12:1],6-2[12:1],7-3[12:1],
8,{12}8-5[12:1],8-3[12:1],8-4[12:1],,,,2-7[12:1],2v4[12:1],2-6[12:1],
,,,5-8[12:1],5-2[12:1],5-1[12:1],,,,4-7[12:1],4v2[12:1],4-8[12:1],
,,,{4}1qq4[4:1],6,8>3[6:1],
7q4[6:1],5>1[6:1],6,1q6[6:1],
2<7[6:1],4<7[6:1],1s5[6:1],3-7[12:1],
{6}6,{12}1-5[12:1],5-3[12:1],,6,{6}6,{12}6>4[12:1],4>8[6:1],,6,
,,,{4}8-4[12:1],{12}8,1-3[12:1],3-5[12:1],5-7[12:1],,,,1-6[12:1],
6-3[12:1],3-8[12:1],,,,5,5-8[12:1],8-3[12:1],,5,
{6}3w7[12:1],{12}2,3pp1[4:1],,,{4}7,{12}5-8[12:1],,4,
{6}5,{12}1-4[12:1],1-6[12:1],,1,{6}1,{12}2<7[12:1],7>2[12:1],2>5[12:1],2,
,,,{4}6qq3[6:1],,5v2[12:1]/7-4[12:1],
,4v1[12:1]/2-5[12:1],{12},,,4<6[12:1],6<8[12:1],8>2[12:1],
{3}2<2[3:1],{12},,,,3,2h[4:1],,,5-3[12:1],
3-8[12:1],2-6[12:1],1b-5[12:1],,2>6[6:1],{6}1<1[4:1],{12}2,1-6[12:1]*pp8[4:1],,,,,,6>2[6:1],
,2-6[12:1],{6}6-2[12:1],{12}1<6[12:1],1>4[12:1],,1,
{6}1,{12}3-7[12:1],1-5[12:1],,3-6[12:1],{6}1<1[4:1],{12}3,1-6[12:1]*pp8[4:1],,,,,,7V53[6:1],
,3-7[12:1],{4}7/2qq2[4:1],2V48[6:1],
7qq7[4:1],{12}7V51[6:1],,1-7[12:1],{4}2>2[4:1],2-6[12:1],
5>5[4:3],5b/6h[4:3],{12},,,,,,,,,,,,8-2[12:1],
7,6,5-7[12:1],4,3,
2z6[6:1],1,8,7,,,1-7[12:1],2,3,4-2[12:1],5,6,
7s3[6:1],8,1,2,,,4-6[12:1],3,2,1-3[12:1],8,7,
6z2[6:1],5,4,3,,,5-3[12:1],6,7,8-6[12:1],1,2,
3s7[6:1],4,5,6w2[4:1],
E
