&title=Maboroshi
&artist=かめりあ(EDP)
&first=0.03
&des=马马
&des_5=马马
&lv_5=14
&inote_5=(190){4},{1},,,{4},,,{8}5,
,,5h[8:5],,,,,4,
,,4h[8:5],,,,,5,
,,5p4[8:7],,,,,,,,,,,,,3,
,,3h[8:5],,,,,8,
,,8h[8:5],,,,,2,
,,2>8[16:9]/7<1[16:9],{16},,,,,,,,,,,,,,2,
1,{8}3,{16}7,8,{8}6,{16}3,4,
{4}2b-5[8:1],{8}6,8b<4[4:1],,,2,1,
{4}8b-3[8:1],{8}5,7b-5[8:1],,,{4}1h[4:1],
4b<7[8:1],{8}1,3bqq6[8:9],,,{4}7>5[4:3],
,,,,7b-4[8:1],
{8}3,1b>5[4:1],,,7,8,
{4}1b-6[8:1],{8}4,2b-8[8:1],,,{4}6h[4:1],
8b>3[8:1],{8}5,7bqq4[4:3],{16},,,,,,,,,,,,,,3,
2,1,8,7,6,5,4,3,2,
{4}1/5b-8[8:1],{8}2,4bV28[4:1],,,6,5,
{4}4b-7[8:1],{8}1,3b-1[8:1],,,{4}6h[4:1],
8b>3[8:1],{8}5,7bpp4[8:9],,,{4}3>5[4:3],
,,,,4/3-1[8:1],
{8}5,6,{4}8/7-5[8:1],1,
4/3-5[8:1],{8}6,7,{4}4/8-4[8:1],2,
{8}1/5,2,3/6,4,5/7,6,1/5,4,
{16}2,1,2,8,2,7,2,6,{2}3b<6[8:1],
{4}8b/7b<3[16:3],{8}1,2h[4:1],,1-5[8:1],,2,
3-6[8:1],7-2[8:1],,,,5-3[8:1],,6,
{4}6h[4:1],{8}8,8-4[8:1],,6,5,3,
{4}2-7[8:1],{8}7,6-3[8:1],,1,{4}2h[4:1],
4<8[16:3],{8}2,3h[4:1],,1-5[8:1],,2pp1[16:5],
,6,7,8h[4:1],,2,7,4,
{16}5/6,,,3,{8}4,2v5[8:1]/6v1[8:1],,6/2,,3>1[8:1],
1<7[8:1],7<4[16:3]*p3[16:3],{16},,,,,,2,1,8,7,6,5,
{4}4/8bqq1[4:1],{8}3,3h[4:1],,2-6[8:1],,3,
3-8[8:1],7-4[8:1],,,,1pp8[4:1],,6,
{4}6h[4:1],{8}7,7-3[8:1],,5,5,4,
{4}4>1[8:1],{8}6,7<4[8:1],,1,{4}2h[4:1],
1pp3[32:5],{8}8,7<4[6:1],,2,,3V51[4:1],
,7,7,8h[4:1],,2,7,4,
{16}6/5,,,3,{8}4,1/5-1[8:1],,5/2w6[8:1],{16},,,,,,4,
5,3,6,2,7,1,2,3,4,7,6,5,4,
{8}2b,{24}6,7,8,{8}4h[8:1],7,{24}3,2,1,5h[8:1],,,{4}2-4[8:1],
6,7-1[8:1],3,2<4[2:1],
{8}2h[4:1],,,1h[4:1],,,{4}4h[4:1],
{1}3q5[16:9]*>5[16:9],
{8}7b,{24}3,2,1,{8}5h[8:1],2,{24}6,7,8,4h[8:1],,,{4}7-5[8:1],
3,2-8[8:1],6,7<1[2:1],
{8}7h[4:1],,,5h[4:1],,,{4}1h[4:1],
{1}5<4[12:7]*p4[12:7],
{8}3b,{24}6,7,8,{8}5h[8:1],6,{24}3,2,1,4h[8:1],,,{4}3>8[8:1],
5,6>3[8:1],1,2qq6[16:9],
{8}2h[4:1],,,4h[4:1],,,{4}7h[4:1],
{1}6p4[16:9]*<4[16:9],
{8}7b,{24}3,4,5,{8}8h[8:1],2,{24}6,5,4,1h[8:1],,,{8}7-4[8:1],7,
2-6[8:1],2,5<3[16:5],5,{4}1,4,
{8}7/8,{24}7,6,5,{8}4,1/2,{24}2,3,4,5,,,{8}7/8,6,
{24}5/1,2,3,4,5,6,7,8,1,2,3,4,8/5,7,6,5,4,3,2,1,8,7,6,5,
{1}1b>1[4:21]/4qq5[8:21],
,,,3<5[4:5],
{4},,,{16},,{24}7,6,5,
{1}4>5[4:5],
{2},4h,
{8}4/5,,,6/5,,,{4}7,
{2}5h[2:1],{4}1,3,
{8}4/5,,,3/4,,,{4}2,
4h[4:1],1h[4:1],6h[4:1],{8}8,8,
1/7,,,4/2,,,{4}7,
{2}5h[2:1],{4}1,3,
2/8,{8}6,5,{4}7,8/2,
{16}3,1,4,8,{24}5,6,7,8,1,2-5[8:1],{2}6-1[8:1],
{4}7b-4[8:1],{16}3,2,{8}1>5[4:1],,,7,8,
{4}1b-6[8:1],{16}4,3,{8}2-5[8:1],,,{4}7h[4:1],
5b-2[8:1],{16}8,7,{8}6pp3[1:1],,,{4}2<4[8:5],
{8},,,,,,,,4/3,
2>6[4:1],1,2h[4:1],,,1,7qq1[16:7],
8,7h[8:3],,,,,{4}1h[48:1]/8h[48:1],
{8}2/5,3,4/6,7,8/1,2,3/7,6,
{16}4,5,4,5,2,1,2,1,3,4,3,4,{32}2,1,8,7,6<4[8:13],5,4,3,
{1}2qq5[2:3],
,5s1[16:9]/4z8[16:9],
{16}2,1,3,8,4-8[8:1],7,5,6,{4}4b,{24}1-5[8:1],2,3,5V38[16:3],6,7,
{8}1b,{16},,,,7,1,{8}5-7[8:1],5,3V51[4:1],3,
8,{16},,,,8,2,{8}6,6,{24}1>5[6:1],2>6[6:1],3<7[6:1],4<8[6:1],,,{4}1pp4[8:3],
1,,8/2,
{24}7,6,5,1,,,2,3,4,8,,,7,6,5,1,,,2-6[8:1],3,4,6>1[16:3],7,8,
{8}2b,{16},,,,7,7,{8}1V35[4:1],1,5-1[4:1]*V71[4:1],5,
{16},,,,,,8,2,{8}6,6,{24}2b,3,4,8,,,7b,
6,5,2,,,3b,4,5,8,,,6b,5,4,2,{96},,,,,,,,{32}8bs4[4:1]*z4[4:1],7,6,5,4,3,2,1,
{4},,{12}2b/5b,3,4,1b/5b,8,7,
{4}6bV47[4:1]/2bV41[4:1],,,2b/8bV24[16:3]*V64[16:3],
{8}8,{16},,,,5,3,{8}7,7,{24}8>4[6:1],1>5[6:1],2>6[6:1],3<7[6:1],,,{4}8pp5[8:3],
8,,2/8,
{24}2,3,4,8,,,7,6,5,1,,,2,3,4,8,,,7-3[8:1],6,5,3V58[16:3],2,1,
{8}7b,{16},,,,1,7,{8}2-4[8:1],3,6V84[4:1],7,
2,{16},,,,1,5,{8}3,3,{24}1<5[6:1],8<4[6:1],7<3[6:1],6>2[6:1],,,{4}1b,
{24}8,7,6,5,{96},,,,,,,,{32}8b,7,6,5,4,3,2,1,8,7,6,5,4pp3[8:5]*pp3[8:5],3,2,1,
{1}4b/8pp7[2:1],
{8}4b/8b,{16}2,1,{8}2,{16}7,8,{24}7,6,5,4h[8:1],,,8,7,6,5h[8:1],,,{4}1,
{16}4/8,7,6,5,8/4,1,2,3,1/4,8,7,6,
{8}5b/2b,{16}3,4,{8}3,5/2,{16}1<3[4:1],8,2,7,{4}1,
8,{16}2/7,6,5,4,8/3,1,2,3,4/1,8,7,6,
{8}2b/5b,{16}3,4,{8}3,{16}1,8,2,3,4,5,{4}6/7-3[8:1]*-4[8:1],
7,{16}2,1,3,8,4,7,5,6,{24}3,2,1,8/7,6,5,
{8}4b/3b,2,7,4,6/5,7,1,4,
{24}2,5,2,5,2,5,2-6[8:1],5,2,5,2,5,{2}2-4[8:1]*-8[8:1],
{8}7/1,{24}6,5,4,{8}8,1/7,{24}2,3,4,8,,,{4}8V64[24:5],
3q1[24:5],2V46[24:5]*>8[16:5],{8},,,,2/8,
{24}3,4,5,{8}1,2/8,{24}7,6,5,8,{48},,,,{16}1,4,{24}2,3,4,
{4}5-1[8:1]/6-1[8:1],6/5,{24}2,3,4,5,6,7,8,1,2,3,,,{8}7/5,
{24}6,5,4,{8}1,4/2,{24}3,4,5,8,,,{8}7V53[24:5],7,
2q8[24:5],2,1w5[8:1],1,{24},,,,,,3,2,1,8,7,6,
{8}8/5,{24}7,6,5,{8}1,8/5,{24}7,6,5,8,,,{8}3,3,
2/1,{24}2/1,3/8,4/7,{8}5/6,7/8,{24}7/8,6/1,5/2,4/3,,,{4}2/1s5[6:1],
{1}2bpp5[2:7]/1bqq6[2:7],
,,,{8},3h[8:3],
,,5h[8:3],,,1>6[8:5],
,,,,,8,,,,5h[8:3],
,,6h[8:3],,,8<3[2:1],
{24},,,,,,,,,,,,,,,,,,{12}2,4,5,
{1}7b,
3h[8:3],
{4}3h[8:3],,,3/4q5[4:3],
,,,,{1}6h[8:3],
6h[8:3],
{4}6h[8:3],,,7<2[32:65]/8<2[1:2],
E
