&title=Xterfusion
&artist=REDALiCE × t+pazolite
&first=0.02
&des=Xstralusion
&des_5=Xstralusion
&lv_5=14+
&inote_5=(256)
{4},,Ch[4:1]/2h[4:1],,
{4}1b/8b,1bV36[8:3]/8b,7h[4:1],,8b,8bV64[8:3]/5b,3h[4:1],,
{4}2b<8[8:1]*>4[8:1],,5-1[8:1]*-2[8:1],,7qq4[2:1],,,,
{4}A6/D6f/A5/1V35>2-8[2:3],,,,7h,,,,
{4}5V71<6-4[2:3],,,,3h,,,,
{4}2<6V83[2:3],,,,4h,,,,
{4}7>3p5[2:3],,,,4h,,,,
{4}1>5p3[2:3],,6,,7h,,8,,1<5p2[2:3],,4,,3h,,2>7[2:3],,
{16}1bh[1:2],,,,,,,,,,,,,,,,,,,,,,,,,,,,7h[16:1],,7h[16:1],,
{16}6,,6,,5/4,,3,,3,,2/1,,8,,7,,3h[8:1],,6,5,7h[8:1],,1,8,2h[8:1],,5h[8:1],,Chf[8:1],,,,
{32}7bh[1:2],,,,,,,,,,,,,,,,1x,8,,,,,,,,,,,6x,5,,,,,,,,,,,2x,1,,,,,,,5x,4,,,,,,,2x,1h[32:63],,,,,,,
{32},,,,,,,,,,,,,,,,8x,7,,,,,,,,,,,3x,2,,,,,,,,,,,7x,6,,,,,,,4x,3,,,,,,,6x,5h[32:7],,,,,,,
{8}1>8[4:7],1,8,8,7,7,6,6,5<8[4:3],5,4,4,3,3,2,2,
{16}1,2,3,4,5,6,7,8,1,2,3,4,5,6,7,8,
{4}1h[8:1]/4h[8:1],3h[8:1]/6h[8:1],8w4[8:1],Cf,
{4}2bx-6b[8:1],8bx-4b[8:1],1bx-5b[8:1],7bx-4b[8:1],1bxw5b[8:1],1bx,8bxw4b[8:1],8bx,
{8}2bx-5b[8:1]/7bx-4b[8:1],1bx/8bx,2bx-8b[8:1]/7bx,,6bx-1b[8:1],,1bx,,
{16}2bhx[16:3],,,4bx,3bx,,1bx/5bx,,1bxh[4:1]/5bx,,,,8bx,,7bx,,8bx-4b[8:1],,,,8bx/2bx-5b[8:1],,,,2bx/6bx-1b[8:1],,,,4bx/6bx,,,,3bx-5b[8:1]/7bx,,2bx/8bx,,3bx/7bx,,
{32},6bx,7bx,8bx,1bx,,,,1bx,,,,1bx,8bx,7bx,6bx,
{16}4,3,2s6[2:1],,,,,,,,,,,,,,7,5,4>1[8:1]/8<5[8:1],,,,4/8w4[8:1],,,,8x,,,,2h[8:1]/6h[8:1],,,,
{4}7bx-3b[8:1],1bx-5b[8:1],8bx-4b[8:1],2bx-5b[8:1],8bxw4b[8:1],8bx,1bxw5b[8:1],1bx,
{8}7bx-4b[8:1]/2bx-5b[8:1],8bx/1bx,7bx-1b[8:1]/2bx,,3bx-8b[8:1],,8bx,,
{16}7bhx[16:3],,,5bx,6bx,,8bx/4bx,,8bxh[4:1]/4bx,,,,1bx,,2bx,,
{16}3b,4b,3bh[8:1],,6b,5b,6bh[8:1],,8bv5[8:1]*-3[8:1],,,,,,,,
{16}2b,1b,2bh[8:1],,7b,8b,7bh[8:1],,5bq1[8:1]*p1[8:1],,,,,,,,
{8}2bx,3,4bxV28[4:1],5,,7,6,5,4bxV68v5[2:1],4,3bx,2h[8:3],,,,,
{4}3bx<6q6[2:3]/7bx>2q2b[2:3],,,,,,,,
{4}3-5[4:1]/6h[4:1],,6h[4:1],,7h[4:1]/3-5[4:1],,7h[4:1],,
{4}8h[4:1]/2-4[4:1],,8h[4:1],,1h[4:1]/2-4[4:1],,1h[4:1],,
{8}8-4[4:1],,4<7[8:3],4>1[4:1],,,,,
{4}8,7h[2:1],1h[4:1],,
{8}2,2,4,4,3,3,5h[4:1],,4,5/7,6,5,2h[4:1]/4,,3,,
{4}1-3[8:1]/5,5,1-4[8:1]/5,5,1-5[8:1]/6,6,1-6[8:1]/7,7,
{4}8-6[8:1]/4,4,8-5[8:1]/4,4,8-4[8:1]/3,3,8-3[8:1]/2,2,
{4}1>4[8:1],B7/E7/B6,8<5b[8:1],B2/B3/E3,1-5[8:1],A7/D7/A6,8-4b[8:1],A2/D3/A3,
{8}1,8,2,7,3,6,4,5,
{16}3,4,5,6,7,8,1,2,3h[8:1],,7h[8:1],,5h[4:1],,,,
{8}Cf,,,,,,,,A6,A5,A4,A3,,,,,B6,B5,B4,B3,,,,,E6,E5,E4,E3,,,,,
{8}6,5,4,3h[8:5],,,,,5,4,3,2h[8:5],,,,,4,3,2,1h[8:5],,,,,5<1p3[8:5],4,3,2h[8:3],,,,,
{8}1xh[2:1],,,,6,7h[8:5],,5h[8:3],,,,,8h[4:1],,2h[4:1],,5h[4:1],,3,7h[4:1],,2h[4:1],,6h[8:9],,,,,,,8,,
{4}1-5[2:1],B2,B4,D5,7-3b[2:1],B8,B2,D3,
{8}1xs5[2:1],1x,8x,8x,,7x,7xh[8:1],,
{8}3b,3,3,3,3/B5/E6,3,3h[8:1]/E7/D7,,
{8}8b,8,8,8,8/E5/A5/D5,8,8h[8:1]/E3/A3/D3,,
{16}1b,,8,,2/7,,6,5,7h[8:1],,1,8,Cf,,,,
(130)
{8}2b-5[8:1],,1b/2b,,1b-5[8:1]/2b-5[8:1],1b/2b,1b/2b,,
{48}7,,,,,,,,,,,,7/8,E7,B6,B5,E5,,,,,,,,7/8,,,,,,7/8,,,,,,7/8,E7/B8,B6/C,B5/B4,E5/A4,,,,,,,,
{16}1b<6[8:1]/2b,,1b/2b,,,2b,,,1b-3[8:1]/4b-8[8:1],,1b/4b,,1b/4b,,,,
{64}7/8,,,,,,,,7/8,,,,,,,,A8,D1,A1,D2,A2/7,D3,A3,,,,,,,,,,
{48}5/8,,,,,,5/8,,,,,,5/8,B5/E8,C/E7,A6/B1,,,,,,,,,
(135)
{16}1b-4[16:1],,,1b-6[16:1]/7b,,,1b/3b,,
{12}2b-5[8:1],1b/2b,1b/2b,1b/2b,,,
{64}8,,,,,,,,,,,,8/2,E8,B7,B6,E6,,,,,,,,8/6,E1,B1,B2,E3,,,,
{48}7,,,,7/8,,,,7/8,,,,7/8,E7,B6,B5,E5,,,,,,,,
(140)
{16}3b,2b/4b,,6b,5b/7b,,8b,1b,2b-5[8:1]/7b-4[8:1],,3b/6b,,2b/7b,,,,
(145)
{16}6,5/7,,3,2/4,,1,8,2/7,,3/6,,
{48}2/7,E7/E3,B6/B3,B4/B5,E5,,,,,,,,
(150)
{8}1b-5[8:1]/2b>4[8:1],1b/2b,1b/2b,,
{48}7/8,,,,,,7/8,,,,,,7/8,D7/B8,A6/C,D6/B4,A5/A4,,,,,,,,
{16}2b-5[8:1]*-7[8:1],1b,3b,,2b,,,,
{16}7,8,6,,
{48}7,E8/E7,B6/B8,B1/B5,E2/E5,,,,,,,,
(160)
{16}3b,5b,3b-8[8:1],,2b,4b,3b,,
{16}6,4,6,,7,5,
{48}6,E7,B7,B8,E1,,
{12}3b,2b-8[8:1]/4b,2b/4b,2b/4b,2b/4b,,
{12}6,5/7,5/7,5/7,
{48}5/7,E8,E1,A1,,,,,
(170)
{16}3b,4b,2b,1b,3b,4b,2bh[8:1],,
{16}6,5,7,8,6,5,7h[8:1],,
{32}2b,3b,4bh[16:3],,1b,,,,1b,,,,1b,,,,
{32}7,6,5h[16:3],,8,,,,8,,,,8,,,,
(180)
{8}1b/2b,1b/2b,4,4,7b/8b,7b/8b,5,5,
(190)
{8}2b/8b,2b/8b,4,4,1b/7b,1b/7b,5,5,
(200)
{8}2b/4b,3,5b/7b,6,1b/4b,3,5b/8b,6,
(210)
{8}1b/4b,2,8b/5b,7,1b/3b,2,8b/6b,7,
(220)
{8}1bh[8:1]/5,5,6bh[8:1]/2,2,3bh[8:1]/7,7,8bh[8:1]/4,4,
(230)
{8}5bh[8:1]/1,1,2bh[8:1]/6,6,7bh[8:1]/3,3,4bh[8:1]/8,8,
(240)
{8}3bh[8:1]/5,5,6bh[8:1]/2,2,1bh[8:1]/7,7,8bh[8:1]/2,2,
{8}3/7,3/7,4/8,4/8,1/5,1/5,2/6,2/6,
(250)
{16}1b/5b,4/8,3/7,2/6,5,4,3,2,1,8,7,6,5,4,3,2,1/5,4,3,2,1,8,7,6,
{16}A5,A4,A3,A2,A1,A8,A7,A6,
(256)
{4}5x<6<7>8>1>2>3<4[2:1]/Ch[4:3],,,,
{16}E3,E4,E5,E6,E7,E8,E1,E2,
{4}2x>5[8:1],8-4[8:1]/2x,
{8}1b<6[8:1],,5-1[8:1]/1,,5V38[4:1],,7-3[8:1],,7,,1-4[8:1],,1-7[8:1]/7-5[8:1],,1/7V13[4:1],,
{8}4-6[8:1],,4>7>4[2:1],,4,,6,,5-1[8:1],,5V38[4:1],,7,,6,,
{8}1<6V82[8:3],,6,5,4-8[8:1],,4>2[8:1],,7-4V61[8:3],,1,1,2-5[8:1],,2,,
{8}8-4[8:1],,1/8,,
{16}1/5,2/6,3-8[8:1]/7-4[8:1],,,,B2/Cf/B6/3b/7b,,,,1/5,,1/5<1<5[2:1],,,,3,,,,2,,,,
{8}1bx-5[8:1],,1V74[4:1]/8,,3,,1<6V82[8:3],,3,,4-8[8:1],,3,,1>4[8:1],,
{24}1/5,,,,,,6,7,8,1b-6[8:1]/5b-2[8:1],,,,,,1b<3[8:3]/5b,,,,,,1b/B5/B4/E5f,,,
{8},8x,8x-6[8:1]*-5[8:1],,8-2[8:1]*-3[8:1],,8,,
{16}7<4[8:1],,,,7/3,2,1,8,7-3[8:1],,,,7,,,,
{16}2>5[8:1],,,,2/6,7,8,1,2-6[8:1],,,,2,,,,
{8}7b-4[8:1],8,7,1b-5[8:1],8,1,7,6,4,4,3/5,3/5,2h[16:1]/6h[16:1],2h[16:1]/6h[16:1],1h[16:1]/7h[16:1],1h[16:1]/7h[16:1],
{4}8pp4pp8[2:7],,,,,,,,8,,1,,2,,3,,4>6<4[2:3],,,,Ch[1:1],,,,5z1[2:1],,8-4b[8:1],,
{8}2,2-6b[8:1],,,,,,,
{8}4/5,,4h[4:1]/5h[4:1],,,3/4,,3h[8:5]/4h[8:5],,,,,,2/5,,,
{8}5/7,,5h[4:1]/7h[4:1],,,4/6,,4h[4:1]/6h[4:1],,,3h[4:1]/4h[4:1],,,2/5,,,
{4}1b<6[2:1]/Chf[1:2],,,,1b<5[2:1],,,,1b<1[2:1],,1b<1[2:1],,1b<8<7<6>5>4>3>2<1[2:1],,1b<8<7<6>5>4>3>2<1b[2:1],,Chf[2:1],,B1/B2/B3/B4/B5/B6/B7/B8,,
{8}2b-5b[8:1],2,7-4b[8:1],7,1-5b[8:1],1,8-4b[8:1],8,2-6b[8:1],2,7-3b[8:1],7,8>4b[8:1],8,
{16}4,5,6,7,
{8}8b-6b[8:1],8,2-4b[8:1],2,1-5b[8:1],1,2-6b[8:1],2,8-4b[8:1],8,1>4b[8:1],1,
{16}5-2b[8:1],6,7,8,1,,,,
{16}1bx/8bx,,3,4,2-8b[8:1],,7,,2>5b[8:1],,,,
{24}2/5,6,7,8,,,
{8}1bx-5b[8:1],2-4b[8:1],1,2,6,6,7b/8b-4b[8:1],,2b>5b[8:1]/8b/Cf,,2b,,7b,8b-4b[8:1],4b,8b,2b<7b[8:1]*>5b[8:1],,2-6b[8:1],,2,,4b/8b,,
{8}7b-4b[8:1],7,2-5b[8:1],2,8-4b[8:1],8,1-5b[8:1],1,7-3b[8:1],7,2-6b[8:1],2,1<5b[8:1],1,
{16}5,4,3,2,
{8}1b-3b[8:1],1,7-5b[8:1],7,8-4b[8:1],8,7-3b[8:1],7,1-5b[8:1],1,8<5b[8:1],8,
{16}4-7b[8:1],3,2,1,8-4b[8:1],,,,
{16}1b,,,,1/5,2/6,3/7,4/8,1<6b[8:1]/5>2b[8:1],,,,1v4b[8:1]/5v8b[8:1],,,,1b/5b,,,,
{16}3/7,2/6,1/5,4/8,3-6b[8:1]/7-2b[8:1],,,,3/7,,,,
{8}8-4b[8:1],4-8b[8:1],8,1<6b[8:1],2>5b[8:1],1,2,,
{8}8b,7,7,4b/6b,3,3,2b/8b,,3b/7b,3,3,2b/6b,6,6,1b/5b,1/5,
{16}2b,,2,4,2,,6b,,6,5,6,,4b/7b,,4/7,,
{16}3b,2,1,8,
{24}7/5,4,3,2,1,8,2/7,3,4,5,6,7,8,1,2,3/7,4/8,5/1,2-7[128#16:1]/6-3[128#16:1],,,,,,,,,,,,
{32}2b>2[8:17]/6b<6b[8:17]/B1/B5,Cf,,,,,,,,,,,,,,,,,,,,,,,,,,,,,,,,,,,,,,,,,,,,,,,
{4},,,,
{8}3bx,4bx,5bx,6bx,
{12}7bx,8bx,1bx,2bx,3bx,4bx,5bx,6bx,7bx,8bx,1bx,2bx,3bx,
{24}4bx,5bx,3bx,6bx,2bx,7bx,1bx,8bx,1bx,8bx,Cf,,,,,,
E
