&title=トリックハート
&artist=MIMI
&first=0
&lv_5=13+
&des_5=@Popcorn
&inote_5=
(150){4},,{2}4-1<8-5>4[2:3],
{8},,,,,,,,,,,,6h[8:1],
4,6h[8:1],3,
4,5,6,7h[4:1],,4,{32}A6,D6,{16}A5,,,,,,,{8}3,
4/6h[4:1],,3h[4:1],,4pp4[8:3],
,,,,,6xh[4:1],,5qq5b[8:3],
,,,,,6x,4,5,
3,5,{4}4/6h[4:1],{8}3h[8:1],4,3h[8:1],6,
5,5x/2xh[8:1],{32}A3,D4,{16}A4,,,,,{8}7-5[8:1],4,7,
3,3-5[8:1],6,6,7-1[8:1],5x,4,3h[4:1],
,,,7h[1:1]/3h[4:1],,,,3h[2:1],
,,,,,4/5,6/3,4/5,
2/7,8-4[8:1]/1-5[8:1],,Cf/1b>4[8:1]/8b<5[8:1],,1b/8b,,5x/4x,
{16}6h[16:1],5,6,4,{8}7,3/5,4,{16}6x-4[8:1],5,7,5,{8}6b<1b[8:1],
,6x/3x,{16},,2v5[8:1],2,{8}8,2/7,{16},,6x<1[8:1],5,
7,5,{8}6b>3b[8:1],3x,6bx/2x,1,{16}7<3[16:3],8,6,1,{8}7,
1h[8:1],,,6/4,3,3/5,{16}6,4,5,4,
{8}6h[8:3],3,4,5,4h[8:1],6,2,7,
1,8b-4b[8:1],,1,2,5bx/3x,6/4bx,5/7b,
6/4b,5bv8b[8:1]/3bv8b[8:1],,5x/3>5[2:1],,7xh[2:1],{16},,,,,,,,,,,,,,7,
8,{8}6,5/4,
{16}3,4,{8}2,1/7v4[8:1],6/2,7/1,{16}3,3,{8}5>2[8:1],7,
{16}5/8-4[8:1],7x,{8}6x,7-2b[8:1],6x,3/7bx,{16}4x,4,{8}8x,7/1,
{16}2,6,{8}4,7/3v8b[8:1],6,5/3,{16}6x,6,{8}1x>4b[8:1],2,
{24}5x/1b,6x,7,8h[8:1],{48},,,,,,,,,,,,,,,,{16}2-5[8:1],4,{8}3,2x/8-4[8:1],7x,
8/3,{16}2x,6x,1,7,{8}8,6<1[8:1],5,4/6x,2bx>5b[8:1],
8x/1x,7/2bx,,8<5[8:1],{16}1-5[8:1],2,{8}8,1bx>4b[8:1],6,
{24}7/1b,A6,D6,A5,,,,,,{8}5bxpp5b[4:1],5,5qq5[4:1]*qq5[4:1],,,,,,7h[8:1],
5,6h[8:1],4,5h[8:1],
3,4,3,5,5,3h[8:1],4x,{16}5,6,
{8}7h[16:1],{16}2,3,{8}4h[16:1],{16}5,6,{4}7h[16:1],{8}5h[8:1],4,
6h[8:1],4,6h[8:1],3,2,6h[2:1],2,3,
4,5,{4}6x,{16},,2,3,{8}4h[16:1],{16}7,6,
5h[16:1],4,5,3,6,2,7-5-3[16:3],1,{8}8,7/3,{16},,,,1,
2,{8}3h[8:1],{16}5,6,{8}7h[8:1],4,5/3h[4:1],,6h[8:1],
5,6h[8:1],3,4,4x/7xh[8:1],{32}A6,D6,{16}A5,{8}4xh[8:1],5xh[8:1],
3h[8:1],6h[4:1],,,,3-6[8:9]*-6[8:9],,,,,,,,,,,,,,6-3b[8:11],
,,,,,,,,,,,,,,{4}7h[8:1],
7h[8:1],{8}7-3[8:1],3-7[8:1],
7,,,2,2,1-5b[8:1],5w1[8:1]*w1[8:1],A1/E1/E2,
,,,,,5,3,3h[4:1],
4,6,6/4,6,5,E7,C,E3,
B8/B7,B3/B4,,,,6,{16},6,,,{4}6/3,
{16}4,,,4,,,{8}4/6,{16},5,,,5,
,,5/2,,,,,,,{8}2p4[8:5]/7q5[8:5],,,,,,,,7/5,
5/4,4/2,
1/8,6/3,{4}B7/E7,{8}8x/1>4b[8:1],2/7,{4}8bx/1bx/B2f,
{16}6x,5,{8}7,8/1,{16}2,4,{8}3,5/4-8[8:1],6/3,4/5,
{16}6,6,{8}1-3-5b[8:1],2/7,1/6-3[8:1],7,8-4[8:1],7x,4x/8x-2[16:1],
{16}3bx,3,{8}8x-6[16:1],5x,8bx,3,5/4,6/3,8/1-5[8:1],
7/2,1/8v3[8:1],7,1/8b,,2x/4x-1b[8:1],5,4/6,
{16}7,7x,{8}8-5[8:1],1,8/2,3,2b-6[8:1],8/2x-4-7-5-2b[8:3],5x/2bx,
,,,,,4/2-5[8:1],{16}1,8,{8}2,
7,4/6b-1b[8:1],{16}5,4,{8}6>3[8:1],2,6/8-2-4-6[8:3],,5,
7,1bx-5b[8:1],,1x/8x,{16},,5x,6,4,5,{8}4/3,
5x/1-5[16:1],2,7/1b,8,1/2h[8:1],{16}4,3,5,4,{8}5x/6x,
4x/8-4b[8:1],7,2/8b,1,6-4[8:1],4x,6<1[8:1],{16}3,3,
{8}6,{16}2,2,1x,3x,{8}8h[8:1],4b>1[8:1],5,4/6bpp5b[4:1],7x,
6/1x,{16},,,,4x,3x,5,4,{8}6x/5x,4x/8-4[16:1],7,
2/8b,1,8/7h[8:1],{16}5,6,4,5,{8}4x/3x,5x/1-5b[8:1],2,
{4}7/1b>4[8:1]*<6[8:1],1b,{8},4x/6-1[8:1],7,6/2-5[8:1],
3,{16}2/8-4[8:1],7x,{8}6x,8/3b<8[4:1],2,5bx/3bx,,1bx-4<6b[16:3],
{16},,,,,,,,,,2,8,{8}2,1p4b[8:1],
7bxh[4:1],,,3x,2>5b[8:1],2x,6<1b[8:1],6x,
2-5b[8:1],2x,6-1b[8:1],6x,3xh[8:1],,,6h[4:1],
5,4,3,6,{16}3,5,2,4,1,8,1,8xh[16:1],
,,5,7,4,6,1,8,1,8,{8}2x/6x,3/5,{16}1,8,
3,4,,,2>5[8:1],6,{8}6,{16}2<7[8:1],8,{8}8,{16}2-6b[8:1],4,{8}4,
2bx,7x,{16}1,8,1,8,{8}7x/4x,{16}6,5,6,5,{8}6,
{16}4,5,4,5,{8}4,{16}5,4,{8}5,{16}3,4,3,4,{8}3,
6/2,8/4,7/3,6/2,5/1,8bq2b[8:11]/4bq6[4:7],,,,,,,,,,,,,,,,,,,,B6/B5,
,,,B3/E3,,,5,
4,5,4,4h[8:1],5,,5,
,5,,5,,4,,4,
,5/3,,6/3,,4/7,7/4,3,
3x,3,7/4,6,5/2,3,4/7,6,
4,6h[4:1],{24},,,7-3b[8:1],8,1,2,3,4,5x/7bx/Cf,{48},,,,,,,,,,{16}6x,5x,
{8}7-5[8:1],4,7/3v8b[8:1],2,3/7v4[8:1],6,{4}1xh[8:1]/7b>4[4:1]*>4[4:1],
{8}5x,6xh[8:1],{16},,,,7x,5x,6,5,7,5,6,5,
{8}7b-4b[8:1],4,7b/3,2bh[8:1],,5/7b,6/4b,5b/3>8[8:1],
8xq4[8:1],6,{16},,,,2x,4x,3,4,2,4,3,4,
{8}2b-5b[8:1],5,2b/6,7bh[8:1],,4/2b,3/5b,4b/6<1b[8:1],
1xp5b[8:1],3,,2h[8:1],8x,7b/4,6/3b,2h[8:1],
8,7b/4,6/3b,2h[8:1],4,4x/5>2[8:1],6,5/7b-3b[8:1],
,7b/1,{16},,,,,,2x,1,{8}3,{16}4/8,3,
1,2-6b[8:1],1,3,1x,8/2b,,,,,7x,8x,6,8,7-3b[8:1],8,
6,8,{8}7bx<4b[8:1],2,1/7bx,{16},,3x,7,{8}4-2-8[4:1],8,
{4}8-6-4[4:1],5,{8}6x,7x,{4}8h[2:1],
{8}5,4,,2-5[8:1],5-3-8[8:1],2,{4}7b-4b[8:1],
7/1>4[8:1],{24}1/5x,6,7,8,,,{8}7x-5[8:1],3x-1[8:1],7-1b[8:1],3-5b[8:1],
7bx,3bx,{24}1x,8x,7x,6x,{48},,,,{16}1x,2x,7x/3x,6,5/2x-6b[8:1],3,4/8-4b[8:1],7,
{8}6/2bx>6b[16:3],8bx,{4}2bx,{16}7x,7x,5x,6x,2,2,4,3,
{32}6bx,7,8,1bx-5b[8:1]*-3-6b[8:1],2x,3x,{16}4x,
E
