&title=聖徳伝説 ~ True Administrator
&artist=上海アリス幻樂団
&first=0
&lv_5=14
&des_5=伊拉莎玛
&inote_5=
(160){4},,,,{8}1/8,
2,7,3,6,4,5,4,
8/1,7,2,6,3,5,4,5,
1/8,2,7,3,6,4,5,5/4,
8/1,7,2,6,3,5,4,4/5,
7/2h[8:7],7,6,6,8,8,5,5,
2/6h[8:7],2,3,3,1,1,4,4,
6/3h[8:7],6,8,8,5,5,7,7,
{2}7b-3[8:1]/3b-7[8:1],{8}1b/8b,{16}1,8,1,2,3,4,
(162.9){8}5/6,{16}4,7,3,8,{8}2,7/1,{16}2,6,3,5,{8}4,
4/3,{16}5,2,6,1,{8}7,2/8,{16}7,3,6,4,{8}5,
5/6,{16}4,7,3,8,{8}2,7/1,{16}2,6,3,5,{8}4,
4/3,{16}5,2,6,1,{8}7,2/8,{16}7,3,6,4,{8}5,
{16}6,3,5,4,7,4,6,5,7,8,6,1,{8}4h[8:1],{16}2,5,
3,4,{8}2h[8:1],{16}1,3,8,4,{8}6h[8:1],{16}8,7,{8}8,{16}8/7,6/1,
{8}2/5,{16}1/2,8/3,{8}4/7,2/5,{16}3,4,1,8,{8}5,4/6,
3<6[8:1]/7>2[8:1],1/5,{4}3/7,3/7,1/5,
{8}8/3,{16}2,1,2-5[8:1],1,{8}2,2/8-4[8:1],7,8/1,2,
6/1,{16}7,8,7-4[8:1],8,{8}7,7/1-5[8:1],2,1/8,7,
8/3,{16}2,1,2-5[8:1],1,{8}2,2/8-4[8:1],7,8/1,2,
{16}5,4,{8}5,6/3,{16}7,8,{8}1/6,{16}2,1,{4}8/3,
{8}1/6,{16}7,8,6>3[8:1],8,{8}7,6/1-5[8:1],2,1/8,6,
7/3,{16}2,1,3<6[8:1],1,{8}2,3/8-4[8:1],7,8/1,3,
{16}1,8,1,8,2,7,2,7,3,6,3,6,{8}4-2[16:1]/5-2[16:1],4/5,
{16}4x-7[16:1]/5x-7[16:1],{8},{16}4x-8[16:1]/5x-1[16:1],{8},(158)5x/4x,,2h[8:1],7h[8:1],1h[#0.1898727],
(156.9)8<5[8:1],{4},{16}3,4,{2}3>8[8:1],
{8}8/1,1/2,2/3,3/4,{4}5/4h[4:1],{8}6,7,
8<5[8:1],1,{16}2,3,{8}4,{16}4h[8:1]/5h[8:1],{8},{16}3h[8:1]/6h[8:1],{8},2/7,
2/7,{4},{16}8,1,{2}8-4[8:1],
{8}1>4[8:1],{4},{16}6,5,{2}6<1[8:1],
{8}1/8,8/7,7/6,6/5,{4}4/5,{8}2/3,7/6,
4/5,5/6,6/7,7/8,{4}1/8,4/5,
5/4q5[4:1],4/5<4[4:1],,{16}8,{8},{16}8,
{8}2qq5[8:3],{4},{8}6,{2}6,
{16}8/2v5[8:1],{8},{16}5>1[8:1],{8},7,{4}8,{8}8/2,3/4,
7/1,6/5,1/8,4/5,{16}5/8h[8:3],{8},{16}4,{8},5,
8h[8:3],{4},{16}1,8,{2}1w5[8:1],
{8}1/8h[8:3],{4},{16}7,8,{2}1h[2:1],
{16}7v4[8:1],{8},{16}4<8[8:1],{8}4,2,{4}1,{8}1,8,
1/7-4[8:1],{4},{8}1,{4}1-5[8:1],{16}8,7,{8}6,
{16}3,4,3,4,2,5,2,5,1,6,1,6,8,7,8,7,
{1}2h[1:1],
7h[#1.52964],
{6}1q5[16:1],8>3[16:1],7q3[16:1],6<1[16:1],5q1[16:1],4<7[16:1],
3q7[16:1],2>5[16:1],1q5[16:1],8h[4:1],{12},1,1,1,
{6}1>4[16:1],8q4[16:1],7>2[16:1],6q2[16:1],5<8[16:1],4q8[16:1],
3<6[16:1],2q6[16:1],1>4[16:1],8q4[16:1],7>2[16:1],6q2[16:1],
5<8[16:1],4q8[16:1],3<6[16:1],(154)2q6[16:1],1>4[16:1],8h[6:1],
1<6[16:1],1>4[16:1],1-5[16:1],1,{3},(163.75){1}5b/1>8[2:3],
,4b/8<1[2:3],
,(162.75){8}8b/2b,
6,{16}3,4,{8}3,2/6,3,{16}6,5,6,5,
{8}6/4,7,{16}1,8,1,8,{8}1/7,7/1,8/2,8/2,
7/1,3,{16}6,5,{8}6,7/3,6,{16}3,4,3,4,
{8}3/5,2,{16}8,1,8,1,{8}8/2,2/8,1/7,1/7,
5/3,7,{16}2,1,{8}2,3/7,2,{16}7,8,7,8,
{8}7/1,6,{16}4,5,4,5,{8}6/4,{24}8,7,6,{8}5,3/6,
7/4,{16}6,5,{8}6,3,2/5,{16}3,4,{8}3,6,
7/3,{16}4,5,{8}6/3,2/7,{24}1-5[8:1]/8-4[8:1],7/2,6/3,4/5,{12},{4}1b/8b,
{8}7/3,2,{16}7,8,{8}7,1/6,7,{16}3,4,3,4,
{8}2/5,6,{16}2,1,2,1,{8}3/8,3/8,2/7,2/7,
3/5,6,{16}2,1,{8}2,8/3,2,{16}6,5,6,5,
{8}7/4,3,{16}7,8,7,8,{8}6/1,1/6,2/7,2/7,
4/6,3,{16}6,5,{8}6,4/7,6,{16}2,1,2,1,
{8}8/3,7,{16}3,4,3,4,{8}2/5,{24}1,2,3,{8}4,1/8,
2/5,{16}3,4,{8}3,6,7/4,{24}1/8,7/2,6/3,{8}5/4,6/2,
(158){16}8b<5[16:1]/4b>1[16:1],{8},{16}8bq4[16:1]/4bq8[16:1],{8},4b/8b,{2},(157){8}1h[2:1],
{4},{16}8,7,{2}6h[2:1],
{4}3h[4:1],2,1,8h[4:1],
5h[4:1],1h[2:1],,3h[4:1],
7h[4:1],6,4,{8}8,1b,
5h[2:1],{4},{16}2,1,{2}8h[2:1],
{4}4h[4:1],2,2,8h[4:1],
7h[4:1],6h[2:1],,4h[4:1],
3h[4:1],2,1,{8}8,1b,
{4}8/2h[2:1],{8}8,{16}8,7,{4}6h[2:1],2,
3h[4:1],2<7[8:1],4-1[8:1],4,
8h[4:1],1h[2:1],8,3h[4:1],
7h[4:1],6-1[8:1],8>3[8:1],6,
2/5h[2:1],{8}2,{16}2,1,{4}8h[2:1],5,
4h[4:1],2-5[8:1],1<6[8:1],4,
5b/4h[4:1],6h[2:1],4b,2h[4:1],
1h[4:1],2,1,7b/2b,
{1}1b-4[2:1]/8b-5[2:1],
3qq5[2:1]/6pp4[2:1],
{24}1bx,2x,3x,4x,5bx,6x,7x,8x,1bx,2,3,4,5bx,6,7,8,1bx,2,3,4,5bx,6,7,8,
1b,2,3,4,5b,6,7,8,1b,2,3,4,{4}5b,{12}8,8,8,
{24}8/4bx,7,6,5,8bx/4,3,2,1,8/4bx,7,6,5,8b/4,3,2,1,8/4b,7,6,5,8b/4,3,2,1,
8/4b,7,6,5,8b/4,3,2,1,8/4b,7,6,5,8b/4,3,2,1,8/4b,7,6,5,8b/4,3,2,1,
8/4b,7,6,5,8b/4,3,2,1,8/4b,7,6,5,8b/4,3,2,1,8/4b,7,6,5,8b/4,3,2,1,
8/4b,7,6,5,8b/4,3,2,1,8/4b,7,6,5,{2}8b/4,
{32}8x/4bxh,7x,6x,5x,4x,{96}3x,7bxh,,{32}2x,1x,8x,7x,{48}6x,{96}2bxh,5x,{48},{32}4x,3x,2x,1x,8x/4bxh,7x,6x,5x,4x,{96}3x,7bxh,,{32}2x,1x,8x,7x,{48}6x,{96}1bxh,5x,{48},{32}4x,3x,2x,1x,
8x/4bxh,7x,6x,5x,4x,{96}3x,7bxh,,{32}2x,1x,8x,7x,{48}6x,{96}2bxh,5x,{48},{32}4x,3x,2x,1x,8x/4bxh,7x,6x,5x,4x,{96}3x,7bxh,,{32}2x,1x,8x,7x,{48}6x,{96}1bxh,5x,{48},{32}4x,3x,2x,1x,
8x/4bxh,7x,6x,5x,4x,{96}3x,7bxh,,{32}2x,1x,8x,7x,{48}6x,{96}2bxh,5x,{48},{32}4x,3x,2x,1x,8x/4bxh,7x,6x,5x,4x,{96}3x,7bxh,,{32}2x,1x,8x,7x,{48}6x,{96}1bxh,5x,{48},{32}4x,3x,2x,1x,
8x/4bxh,7x,6x,5x,4x,{96}3x,7bxh,,{32}2x,1x,8x,7x,{48}6x,{96}2bxh,5x,{48},{32}4x,3x,2x,1x,8x/4bxh,7x,6x,5x,4x,{96}3x,7bxh,,{32}2x,1x,{4}8xh[4:1],
{32}4,3,2,1,8,7,6,5,{8}4,4/5,{4},(177),
(160)2b/7b,(163){16}6,4,6,4,5,2,5,2,8,7,6,5,
8,1,2,3,7,5,7,5,6,3,6,3,7,6,5,4,
1,2,3,4,6,5,7,4,8,3,1,2,8,7,6,5,
8,7,6,5,{24}1,8,7,6,5,4,2,1,8,7,6,5,3,2,1,8,7,6,
{8}5,3/4,{16}5,6,5,6,4,7,4,7,2,3,4,5,
8,7,6,5,1,2,3,4,5/1,8,7,6,1/5,2,3,4,
1/5,8,7,6,{24}1,2,3,7,6,5,1,2,3,7,6,5,2,3,4,8,7,6,
2,3,4,8,7,6,{16}2,1,2,1,2,1,2,1,2,1,8,7,
{4}6b/4b,{16}7,4,7,4,6,3,6,3,8,7,6,5,
8,1,2,3,6,4,6,4,5,2,5,2,7,6,5,4,
1,2,3,4,6,5,7,4,8,3,1,2,8,7,6,5,
8,7,6,5,{24}7x,6x,5x,8x,7x,6x,1x,8x,7x,2x,1x,8x,3,2,1,8,7,6,
{8}5,4/3,{16}7/1,2,3,4,1/5,2,3,4,1/5,2,3,4,
1/5,8,7,6,{32}1,2,3,4,1,8,7,6,1,2,3,4,8,7,6,5,8,1,2,3,8,7,6,5,
8,1,2,3,8,7,6,5,{8}4b,1b/7b,{4}3b/5b,{8}8/1,3/6,
,4/5,{16}6,5,4,3,4,5,6,5,4,3,4,5,
6,5,4,3,{4}2-6[8:1]/8-4[8:1],,,,,,{8}3-8[8:1]/7-4[8:1],
7b/3b,
{4},2b/6b,,,,,,{8}6-1[8:1]/2-5[8:1],
2b/6b,
{4},3b/7b,,4-1[8:1]/5-8[8:1],
,,,{8}1/5,7b/3b,
,2/6,{4}4b/8b,,2-5[8:1]/7-4[8:1],
{8},,,,,8,8,1b/8b,
{16}1,2,3,4,{8}5b/6b,{16}4,7,3,8,{8}2,7/1,{16}2,6,
3,5,{8}4,4/3,{16}5,2,6,1,{8}7,2/8,{16}7,3,
6,4,{8}5,5/6,{16}4,7,3,8,{8}2,7/1,{16}2,6,
3,5,{8}4,4/3,{16}5,2,6,1,{8}7,2/8,{16}7,3,
6,4,{8}5,{4}6/5<4[2:7],,,,,,,,,,,,,,,,4>5[2:7],
E
