&title=バベル
&artist=Dimension-3
&first=0
&des=旧約 創世紀拾壹章肆節
&lv_5=13+
&inote_5=(126)
{1},
{16}16,,16,,16,,1V35[8:1]/6-3-5[8:1],,16,,,,{64}E5,B5,C,B1,{16}E1,,,
{16}7xh[8:9]/3x,,3,,,5,,5,,5,5,,3,,3,,
{16}5,,5h[16:3],,,8h[16:7],,3,,3,3,,2,,8,,
{16}2h[8:9]/6,,6,,,4,,4,,4,4,,6,,6,,
{16}4,,4h[16:3],,,8h[16:5],,6,,6,6,,{64}E2/E6,E3,E7,E4,E8,E5,E1,,{16},,
{96}4xb-1[128:1],5xb-8[128:1],3xb-1[128:1],6xb-8[128:1],,,{16},,,E7f/B6/B3/E3,,,,3h[8:1],,4h[8:1],,5h[8:1],,6,,
{64}2xb-5[128:1],8xb-5[128:1],1xb-5[128:1],,{16},,,B7/B3f/C,,,,7h[8:1],,5h[8:1],,4h[8:1],,2,,
{16}2xb-5[8:1],,8xb-4b[8:1],,2,,8,,1xb-5[8:1],,7xb-4b[8:1],,1,,7,,
{16}1xbs5[2:3],1,5,5,2,2,6,6,3,3,7,7,4,4,8,8,
{16}Chf[4:3],,,,,,,,,,,,,,,,
{16}1x/8x^5[8:1],,,,5,,,A3,E5,E2,,B3,E7,E1,,,
{16}1h[16:3]/6,,,A4,D3,D6,,B4,B2,B6,,C,A1,A7,,,
{16}8x/1x^4[8:1],,,,4,,,A6,E5,E8,,B6,E3,E1,,,
{16}3/8h[16:3],,,5v6-1b[16:5],8V63[4:1],,,,,,,,,,,,
{16}1x/8x,,,E6,3,E7,,C,3,B8,,B2,3,A1,,,
{16}3x/4xh[16:3],,,2,E5/B4/E4,2,,1,E5/B4/E4,1,,8,E5/B4/E4,8-3[12:1],,,
{16}1xbh[8:7],,,,3x,3,,4,,3,3,,4,,4h[4:1],,
{16},,2h[8:5],,3,3,,4,,3,3,,1,,1,,
{16}8x/1x,,,E4,6,E3,,C,6,B1,,B7,6,A8,,,
{16}6x/5xh[16:3],,,7,E5/B5/E6,7,,8,E5/B5/E6,8,,1,E5/B5/E6,1-6[12:1],,,
{16}8xbh[8:7],,,,6x,6,,5,,6,6,,5,,5h[4:1],,
{16},,7h[8:4],,6,6,,4,,6,6,,7x/8x,,3x/4x,,
{16}2h[16:3]/6,,,4,3x-1[12:1],7,,5,3,8,,7,2x-4[12:1]/6,,1,,
{16}28,,,5,3x-1[12:1],7,,4,3,6,,7,1x-5[8:1]/6,,43,,
{16}6bh[4:1],,,,7,7,,1,6h[4:1],7,7,,1,,1h[4:1],,
{16}4,,4h[4:1],,7,7,,1,4h[4:1],7,7,,{32}8,1x,2x,3x,{16}4x,,
{16}7h[16:3]/3,,,5,6x-8[12:1],2,,4,6,1,,2,7x-5[12:1]/3,,8,,
{16}71,,,4,6x-8[12:1],2,,5,6,3,,2,8x-4[8:1]/3,,56,,
{16}3bh[4:1],,,,2,2,,8,3h[4:1],2,2,,8,,8h[4:1],,
{16}5,,5h[4:1],,1,1,,7,,1,1,,2x/8x,,4x/6x,,
{16}3xb/7xb,,4,5,3^1[12:1],6,5^7[12:1],7,3q5[4:1],,,,,,,,
{16}8xb,,6,5,8<5[8:1],3,4>1[8:1],1,8q1[4:1],,,,,,,,
{16}2xb,,3,5,1-5[8:1],6,4-8[8:1],8,1<2[4:1],,,,,,,,
{16}8xb,,6,5,1,3,4,8,{32}1x-5[8:1]/5x,2,3,4,1x,8,7,6,{16}1xb,,,,
{16}3,3,4,2,8,8,1,7,5-2[16:2]*-8[8:1],5,8,2,B5f,,,,
{16}6,6,5,7,1,1,8,2,4-7b[16:2]*-1b[8:1],4,1,7,B4f,,,,
{24}6b,,6x,5,7x,,3b,,3x,4,2x,,7b,,7x,5,8x,,2b,,2x,4,1x,,
{12}86,86,86,31,31,31,8b^5[8:1]/1b^4[8:1],,,,,,
{16}36,,5,7x,,4,2x,,5,6x,,4,3x,8,1,8,
{16}2<5[6:1],,,37,,,4x>7[6:1],,,,7,,6,,5,,
{32}4h[4:1]/3x,2x,1x,8x,7xpp3[4:1],6x,5x,,{16}3x,,1bh[4:1],,,,,,24,,78,,
{16}5<2[6:1],,,61,,,3x<8[6:1],,,,8,,1,,2,,
{32}8xh[4:1]/E4,E5,E6,E7,E8,E1,E2,E3,{16}E4,,2xbh[4:1]/6xb,,,,4,3,5,2,6,1,
{16}7>4[6:1],,,26,,,5x<2[6:1],,,,2,,3,,4,,
{32}5h[4:1]/6x,7x,8x,1x,2xqq6[4:1],3x,4x,,{16}6x,,8bh[4:1],,,,,,75,,21,,
{16}3>6[6:1],,,28,,,5x>8[6:1],,,,8,,7pp4[4:1],,6,,
{32}7x/D5,D4,D3,D2,D1,D8,D7,D6,{16}D5,,2xb/7xbh[4:1],,,,8,7,1,6,2,5,
{16}3x-8[8:1],,5,5,4x-7[8:1],,7,,4xp8[8:1],2,2,,4x,,6,,
{32}27,6,5,4,3,2,1,8,{16}7/3,,2,6,3>6[8:1]*p6[8:1],5,4,,3b,,,,
{16}2x>5[8:1],,8,8,1x^6[8:1],,7,,1x-5[8:1],3,3,,1x,,8,,
{32}47,3,2,1,7,6,5,4,{16}1,,28,28,3xbh[8:1]/7xb,,1,2,8,3,7,4,
{16}6x-1[8:1],,4,4,5x-2[8:1],,2,,5xq1[8:1],7,7,,5x,,3,,
{32}72,3,4,5,6,7,8,1,{16}2/6,,7,3,6<3[8:1]*q3[8:1],4,5,,6b,,,,
{16}7x<4[8:1],,1,1,8x^3[8:1],,2,,8x-4[8:1],6,6,,8x,,1,,
{32}37,6,5,4,3,2,1,8,{16}57,,{48}4xbqq5b[4:1]/8xbqq1[4:1],B8f,Cf,{16}B4f,,,,,,,,,
{24}37,,3,5,,,26,,2,4,,,15,,1,3,,,8x/4x,,,,,,
{24}25,,2,E1,,,37,,7,E4,,,2/5w1[8:1],,2,B6,,,5xb,,,,,,
{24}62,,6,4,,,73,,7,5,,,84,,8,6,,,1x/5x,,,,,,
{24}82,,2,E6,,,71,,7,E4,,,2,,4,8,,6,3,,5,1,,7,
{24}6x/2x,,3,5,,,73,,2,8,,,26,,3,5,,1,8,,4,6,,2,
{24}7xh[12:1]/3x,,5,8,,,2h[12:1]/6,,4,1,,,7h[12:1]/3,,5,8,,2,1,,5,8,,2,
{24}3x/7x,,6,4,,,26,,7,1,,,73,,6,4,,8,1,,5,3,,7,
{24}2x/6xh[12:1],,5,6,,,7/3h[12:1],,4,3,,,4/8x,7,6,5/2x,3,4,5/8x,7,6,5/2x,3,4,
{24}5xb<4b[4:1]`1xbs5^4z8[2:3],,,,,,,,,,,,,,,,,,,,,,,,
{24},,,,,,,,,,,,,,,,,,,,,,,,
