&title=SnowMix♪ (feat. 初音ミク)
&artist=まらしぃ; 初音ミク
&first=0
&des=尘落南丘
&lv_5=13+
&inote_5=(185)
{1},
{8}2-4[8:1]/5h[4:1],,,B6,,,7-5[8:1]/4h[4:1],,,B3,B2,5,1,7,2,,
{8}3x-5[8:1],,6x-1[8:1],,2,3x-5[8:1],,6x-1[8:1],,2,3x-5[8:1],,6x-1[8:1],,2,,
{8}8-6[8:1]/5h[4:1],,,B4,,,1-3[8:1]/4h[4:1],,,B5,B6,3,8,1,6,,
{8}6x-4[8:1],,3x-8[8:1],,7,6x-4[8:1],,3x-8[8:1],,7,6x-4[8:1],,3x-8[8:1],,7,,
{8}2V48[4:1]/5h[4:1],,,B6,,,6V84[4:1]/1h[4:1],,,B2,B3,5,2,7,1,,
{8}2x-8[8:1],,7x-4[8:1],,3,2x-8[8:1],,7x-4[8:1],,3,2x-8[8:1],,7x-4[8:1],,3,,
{8}5h[4:1]/2-6-4[4:1],,,7,,,4h[4:1]/7,,
{12}6x,5,4,2x,1,8,6x,5,4,2x,1,8,
{8}6hx[2:1],,B3,,,,E3,B6,3hx[2:1],,B6,,,,E7,B3,
{8}7hx[2:1],,B4,,,,E4,B7,2hx[4:3],E6,B6,E6,B6,E6,B6,,
{8}3v5[8:1],3,7-4[8:1],7,3v5[8:1],3,7-4[8:1],7,
{8}3v6[4:1],3,,5p3[8:3],,5x,,6,
{8}6^8[8:1],6,2^4[8:1],2,6^8[8:1],6,2^4[8:1],2,
{8}6^1[4:1],6,,3q5[8:3],,3x,,7,
{8}7-3[8:1],7,2-5[8:1],2,7-3[8:1],7,2-5[8:1],2,
{8}7-4[8:1],7,,2q5[8:3],,2,,7h[8:5],
{8},6,5,,C,,2,2h[4:3]/4q7[2:1],,,,,,,C/E8/A8,,
{8}6/5^2[8:1],,6,5,51,,B6/A6/E7/2,,
{8}3h[8:1]/4^7[8:1],,3,4,48,,B3/A3/E3/7,,
{8}7/5p1[8:1],,6,5,26,,B5/A5/E6/1,,
{8}2h[8:1]/4q8[8:1],,3,4,73,,B4/A4/E4/8,,
{8}7v4[8:1]/5,,4,3,25,,B6/A6/E7/2,,
{8}2v5[8:1]/4h[8:1],,5,6,74,,B3/A3/E3/7,,
{8}8h[4:1]/5-1[8:1],,C,,2/3-7[8:1],2,C,,
{8}2,6,,3,4,5,36,,
{12}2/7p6[2:1],,,2,3,4,5,,,C,,,2/7p6[2:1],,,2,3,4,5,,,C,,,
{12}2/7pp1[4:1],,,2,3,4,5>1[4:1],,,8,7,6,5q7[2:1],,,2,3,4,5,,,C,,,
{12}7/2q3[2:1],,,7,6,5,4,,,C,,,7/2q3[2:1],,,7,6,5,4,,,C,,,
{12}7/2qq8[4:1],,,7,6,5,4<8[4:1],,,1,2,3,4p2[2:1],,,7,6,5,4,,,C,,,
{8}2/8,,5,64,7^4[8:1],,1,,5,64,3,8h[8:1],5v2[8:1],,8,,
{8}7/1,,4,35,2^5[8:1],,8,,4,35,6,1h[8:1],4v7[8:1],,1,,
{8}2/8,2/7,2/6-8[8:1],2/5bx,,,7/1,7/2,7/3-1[8:1],7/4bx,,,
{16}28,,3,7,4,,,,
{8}5b/7b,7b/5b,6b/4b,5b/3b,C/B1,,4b/2b,2b/4b,3b/5b,4b/6b,C/B8,,
{8}7h[8:1]/4h[8:1],,6q8[8:3],,
{4}6/4h[8:3],,{12}1x,2x,3x,4x,5x,6x,{24}1,2,3,4,5,6,7,8,1,2,3,4,
{8}5/7b,7b-3[8:1],,,
{8}2-6[8:1],,7,7V53[4:1],,3V14[4:1]*pp4[4:1],,,
{8},,3,24,5,64,7,,
{8}2V84[4:1],,6,7V51[4:1],,3,2V84[4:1],,6,7V51[4:1],,3,2-6[8:1],2,C,,
{8}7,4-8[8:1],5,42,,,1,1b^6[8:1],,4b^1[8:1],,7b^4[8:1],,3b,3p1[8:3],,
{4}3/5h[8:3],,{12}8x,7x,6x,5x,4x,3x,{24}8,7,6,5,4,3,2,1,8,7,6,5,
{8}4/2b,2b-6[8:1],,,
{8}7-3[8:1],,2,2V46[4:1],,6<3[4:1]*<2[5:1]*<1[20:3]*<8[10:1],,Cf,
{8},,6,75,4,35,2,,
{8}6V84[4:1],,2,1V37[4:1],,5,6V84[4:1],,2,1V37[4:1],,5,6,6,15,2,
{4}3bqq8[8:3]/7bqq4[8:3],,,{8}15,26,3-5[8:1]/7-1[8:1],,37,,E8/E4,B6/B2,,,
{16}3,4,2,5,1,6,8,7,1,8,2,7,3,6,4,5,
{16}3,4,3,4,1bx,,5,3,5,3,7bx,,2,4,2,,6,5,6,5,8bx,,4,6,4,6,2bx,,7,5,7,,
{16}3,4,2,5,1,6,8,7,1,8,2,7,3,6,4,5,
{16}3,,,,B1/B2,,5,4,6,,,,B8/B7,,3,4,2,,,,D2/E2/A1,,6,5,7,,,,D8/E8/A8,,
{16}2x,3,4,,3x,4,5,,4x,5,6,,5x,6,7,,
{16}1,8,2,,,,34,,7,,,,65,,4,5,3,,
{16}2hx[96:1],B2,,7hx[96:1],B7,,2hx[96:1],B2,,7hx[96:1],B7,,
{16}3hx[96:1],B3,,6hx[96:1],B6,,2hx[96:1],B2,,7hx[96:1],B7,,
{16}3hx[96:1],B3,,6hx[96:1],B6,,1hx[96:1],B1,,7hx[96:1],B7,,
{16}5hx[96:1],B5,,3hx[96:1],B3,,2hx[96:1],B2,,8hx[96:1],B8,,
{16}6hx[96:1],B6,,4hx[96:1],B4,,2hx[96:1],B2,,8hx[96:1],B8,,
{8}4,5,{24}6x/3x,7x,8x,1x,2x,3x,4x,5x,6x,7x,8x,1x,2x,3x,4x,5x,6x,7x,8x,1x,2x,3x,4x,5x,
{24}6x,7x,8x,1x,2x,3x,4x,5x,6x,7x,8x,1x,3bx,,,4bx/2bx,,,,,,
{24}36,2,1,8,7,6,5,4,3,2,1,8,7,6,5,4,3,2,1,8,7,6,5,4,
{24}3,2,1,8,7,6,5,4,3,2,1,8,7,,,6bx,,,5bx/7bx,,,,,,,,,
{1}8w4[2:15],,,,,,,,
{16}7/4,,,,5p1[4:1],,,4,5,,,,3q7[4:1],,,5,3,,,,
{16}6,,,5,6,,,4,5,,,3,4,,,,2q6[4:1],,,1,2,,,,8p4[4:1],,,2,8,,,,
{16}2,,,4,3,,,5,4,,,,
{8}6^3[4:1],7,8,1,,,2^7[4:1],3,4,5,,,6,57,3,42,
{16}6,5,8,,3,4,1,,6,5,8,,3,4,1,,5,7,1,,4,2,8,,5,7,1,,4,2,8,,
{8}Ch[8:3]/B3/B2,,,,{12}7,8,1,2,3,4,{24}15,2,3,4,5,6,7,8,1,2,3,4,
{8}5/7b,7b-3[8:1],,,
{8}2-6[8:1],,7,7V53[4:1],,3V14[4:1]*pp4[4:1],,,
{8},,3,24,5,64,7,,
{8}8V26[4:1],,3,3-7-1[4:1],,5,5V37[4:1],,2,2-6-4[4:1],,8,8-4[8:1],,C,,
{8}2,5-1[8:1],4,7/5,,,
{8}28,1bV38[4:1],,8b-3-7[4:1],,7b-3[8:1],,6b,,,
{8}Ch[8:3]/B6/B7,,,,{12}2,1,8,7,6,5,{24}84,7,6,5,4,3,2,1,8,7,6,5,
{8}4/2b,2b-6[8:1],,,
{8}7-3[8:1],,2,2V46[4:1],,6<3[4:1]*<2[5:1]*<1[20:3]*<8[10:1],,Cf,
{8},,6,75,4,35,2,,
{8}1V73[4:1],,6,6-2-8[4:1],,4,4V62[4:1],,7,7-3-5[4:1],,1,2,2,51,6,
{4}7bqq4[8:3]/3bqq8[8:3],,,{8}51,62,7-1[8:1]/3-5[8:1],,73,,E4/E8,B2/B6,,,
{8}7-3-5[4:1]/4h[8:1],,2,B1,,,2-6-4[4:1]/5h[8:1],,7,7,B8,3,7,1,2b/6b,,
{8}7-1[8:1],,7/2-5[8:1],,2/6h[96:1],7-1[8:1],,7/2-5[8:1],,2/6h[96:1],
{8}7-1[8:1],,7/2-5[8:1],,2/6h[96:1],,
{8}8q6[4:1]/5h[8:1],,4,E3,,,1p3[4:1]/4h[8:1],,5,5,E7,2,6,3,4b/8b,,
{8}2-8[8:1],,2/7-4[8:1],,7/3h[96:1],2-8[8:1],,2/7-4[8:1],,7/3h[96:1],
{8}2-8[8:1],,2/7-4[8:1],,7/3h[96:1],,
{8}1V37[4:1]/4h[8:1],,5,B6,,,6V84[4:1]/1h[8:1],,2,2,B3,5,1,7,6b/2b,,
{8}3-5[8:1],,3/6-1[8:1],,6/2h[96:1],3-5[8:1],,3/6-1[8:1],,6/2h[96:1],
{8}3-5[8:1],,3/6-1[8:1],,6/2h[96:1],,
{8}4h[4:1]/7-3-5[4:1],,,2b,,,5h[4:1]/2-6-4[4:1],,,7b,,36,27,
{8}1>7[1:4]/8<2[1:4],,D8/A8/D1/A1/D2/E1f,
{1},,,,
{8},,B3,,,,B5,B6,,,B7,,,,B1,B2,,,B4,,,,B6,B7,,E3,,E5,,E7,,E1,
{1},,E
