&title=夜まで待てない
&artist=山根ミチル
&first=0
&des=ドゥッドゥドゥドゥドゥドゥドゥドゥドゥドゥエッ
&lv_5=13+
&inote_5=(127.3)
{1},
{16}
1bs5[4:2],,,,,,,,,,,,,,8,3,
8bz4[4:2],,,,,,,,,,,,,,,,
2,6,6,3,5,4,6,,35,,26,,17,,2,8,
1<2[4:2],,,,,,,,,,,,,,7,3,
8p5[4:2]*q3[4:2],,,,,,,,,,,,,,2,4,
1q4[4:2]*p6[4:2],,,,,,,,,,,,,,7,5,
8pp4[4:2]*qq4[4:2],,,,,,,,,,,,,,3,5,
1s5[8:3]*z5[8:3],,,,,,,,,,,,6,5,6,5,
(129.2)
7-5[8:1],,,,4-8[8:1],,,,7,,6,,5h[8:1],,,,
2-4[8:1],,,,5-1[8:1],,,,2,,3,,4,5,4,,
6-1[8:1],,,,2-5[8:1],,,,6,,7,,8h[8:1],,,,
7-4[8:1],,,,3-8[8:1],,,,7,,6,,5,4,5,,
7/5q7[8:3],,4,,3h[4:1]/5,,,,,,,,1>4[8:1],8,1,8,
1-5[8:1],,5q8[8:3]*p2[8:3],,1,,,,,,,,,,,,
2/4p2[8:3],,5,,6h[4:1]/4,,,,,,,,8<5[8:1],1,7,2,
8-4[8:1],,4>4[8:3]*<4[8:3],,8,,,,,,,,,,,,
(129.2)
1h[8:1]/8,,,8,2h[8:1],,,1,3<6[8:1],,2,1,3,,8,,
8h[8:1]/1,,,1,7h[8:1],,,8,6>3[8:1],,7,8,6,,1,,
1>4[8:1]/8,,7,7,1-6[8:1],,6,6,1>4[8:1],,5,5,1,,5,,
1bw5[8:1],,,,1b,,,,3b/8b,,,1b/6b,,,4b/5b,,
(127.3)
2b>8[4:2]/7b<1[4:2],,,,,,,,,,,,,,6<4[8:5],5,
7h[4:3],,,,,,,,,,,,,,,,
5,6,6,4,6,5,7,,64,,73,,82,,7qq3[8:5],1,
6h[8:6],,,,,,,,,,,,,,1>8[8:5],8,
2h[8:6],,,,,,,,,,,,,,3qq6[8:5],5,
1h[8:6],,,,,,,,,,,,,,8qq4[8:5],2,
6h[8:6],,,,,,,,,,,,,,7pp6[8:3],3qq4[16:5],
5,,,,,,,,,,3,5,4,6,3,5,
(129.24)
2b>5[8:1],,1,8,2,,8,,7>2[8:1],,6,,5,,4,,
3>8[8:1]/5,,4,5,3,,6,,7<4[8:1],,8,,1,,2,,
6<1[8:1]/3,,5,4,6,,2,,3<6[8:1],,2,,1,,8,,
7<4[8:1]/1,,8,1,7,,2,,3>8[8:1],,4,,5,,6,,
4<7[8:1]/7,,5,3,4v2[8:1],,2V46[6:1],,4,,6,,7,,8,,
1<6[8:1]/7,,8,2,1v3[8:1],,3V17[6:1],,1,,7,,6,,5,,
2-4[8:1]/6,,1,8,2v8[8:1],,8V24[6:1],,2,,7,,6,,5,,
7>2[8:1]/5,,6,5,7,,4,,3,3,4,4,5,5,6,6,
1b,,2,1,3V15[4:1],1,2h[4:1],,,,,,4h[4:1],,,,
8,,7,8,6V84[4:1],8,7h[4:1],,,,,,5h[4:1],,,,
2,,3,4,2z6[4:1],4,3h[4:1],,,,,,1h[4:1],,,,
7,,6,5,7s3[4:1],5,6h[4:1],,,,,,8h[4:1],,,,
2,,1V35[4:1],7,3V57[4:1],7,2h[4:1],,,,,,8h[4:1],,,,
5,,4V28[4:1],6,2V86[4:1],6,3h[4:1],,,,,,5h[4:1],,,,
7,,1>7[4:1],8,4<2[4:1],7,3h[4:1],,,,,,5h[4:1],,,,
1h[8:1],,2>5[8:1],1,3,1,2,,7,7,5,5,4,4,2,,
5pp4[4:2],4,6,,3,,2,2,,1,1,,2,,3,,
3qq7[4:2],4,2,,8,,7,7,,6,6,,5,,6,,
4qq5[4:2],5,3,,6,,7,7,,8,8,,7,,6,,
6pp2[4:2],5,7,,1,,2,2,,3,3,,4,,3,,
6pp5[4:2],4,5,,1,,2,2,,3,3,,4,,5,,
4qq8[4:2],6,2,,8,,6,6,,5,5,,4h[4:1],,,,
8b,,26,,17,,35,,28,,46,,27,,45,,
2b/3b,,6b/7b,,3b/4b,,5b/6b,,2b/7b,,4b/5b,,1b/8b,,4b/5b,,
8<5[8:1]/1,,7,,1/8-4[8:1],,3-1[8:1],3,8-6[8:1],,3-7[8:1],,8,,3,,
6,6,8,5,1h[8:1],,4-1[8:1],2,,6,4,,5,,4,,
1>4[8:1]/8,,2,,8/1-5[8:1],,6-8[8:1],6,1-3[8:1],,6-2[8:1],,1,,6,,
3,3,1,4,8h[8:1],,5-8[8:1],7,,3,5,,4,,5,,
1h[8:1]/2,,,3,7h[8:1],,,5,8<5[8:1],,2,2,8,,3,,
2h[8:1]/1,,,8,4h[8:1],,,6,3<6[8:1],,8,8,3,,8,,
2>5[8:1]/1,,3,,1/2-7[8:1],,6-3[8:1],6,2v5[8:1],,6v1[8:1],,2,,6,,
2,2,8,3,7h[8:1],,5<8[8:1],6,,4,5,,3,,2,,
7-4[8:1]/8,,6,,8/7>2[8:1],,3<6[8:1],3,7-4[8:1],,3-8[8:1],,7,,3,,
5,2,7,4,8h[8:1],,1<6[8:1],5,,3,1,,4,,35,,
1h[8:1]/8,,7,7,3h[8:1],,5,5,2>5[8:1],,1,8,2,,7,,
8h[8:1]/1,,2,2,6h[8:1],,4,4,7<4[8:1],,8,1,7,,2,2,
6,5,6,5,7,4,7,4,8,3,8,3,7,2,7,2,
6,5,4,3,6,5,4,3,7,8,7,8,6b/1b,,8b/3b,,
3b,5,1,5,3,5,1,5,3,7,1,7,3,7,1,7,
1,5,3,5,1,5,3,5,3,7,5,7,3,7,5,7,
4,6,2,6,4,6,2,6,4,8,2,8,4,8,2,8,
2,6,4,6,2,6,4,6,4,8,6,8,4,8,6,8,
5,7,3,7,1,7,3,7,3,5,1,5,7,5,1,5,
8,6,2,6,4,6,2,6,2,8,4,8,6,8,4,8,
3,7,1,5,3,7,1,5,2,6,4,8,2,6,4,8,
{32}2,1,2,1,2,,,,4,5,4,5,4,,,,2,1,,,3,4,,,6,5,,,7,8,,,
{16}
1pp4[4:2]/8h[8:1],,,,8h[8:1],,,,7,,7,,6,,6,,
5pp8[4:2]/4h[8:1],,,,4h[8:1],,,,3,,3,,2,,2,,
1h[16:3]/7h[16:3],,,,,,26,,3h[16:3]/5h[16:3],,,,,,26,,
1h[16:3]/5h[16:3],,,,,,37,,4h[16:3]/8h[16:3],,,,,,26,,
2v4[4:2]/6v8[4:2],,,,,,,,,,,,,,,,
2,1,4,6,3,1,5,6,3,4,1,7,2,4,8,7,
1b,,,,,,,,,,,,,,,,E
