&title=ももいろの鍵
&artist=MORE MORE JUMP! & いよわ
&first=0.02
&des=Yuzukeai
&lv_5=13+
&inote_5=(165)
{4},,,,,,,
{16},,3,4,1h[16:3],,,5,1,,6,,4h[4:1]/7-5[8:1],,,,,,,,4/2h[16:3],,,5,2,,6,,4h[4:1]/7-5[8:1],,,,,,,,3-5[8:1]/4,,,,8,,,,7-5[8:1]/6,,,,1<3[8:3],,,,4h[4:1],,,,,,,,2xh[4:1]/6h[4:1],,,,
{16},,6,5,7h[16:3],,,4,7,,3,,5h[4:1]/2-4[8:1],,,,,,,,5/6h[16:3],,,4,6,,3,,5h[4:1]/2-4[8:1],,,,,,,,7-5[8:1]/5,,,,1,,,,2-4[8:1]/4,,,,8-4[8:1],,,,5qq3qq1[2:1]*pp7pp1[2:1],,,,,,,,,,,,,,,,
{12}2x,,2,3,4,8,7,6,1,2,3,4,5x/6x,,4,3,2,5,6,7,5,4,3,2qq1-5^4b[12:13],1x/8pxp1-5^4b[8:8],,,,,,,,,,,,,,,,,,,,,,,,
{8}4/7-4[8:1],4,,1,5-8[8:1],1,,3,7-4[8:1],3,,1,5-8[8:1],1,,3,7-5[8:1],,5-8[8:1],,1-3[8:1],,3-8[8:1],,4w8[8:1],,,,
{16}2,,2,6,2,,2,,
{8}5/1-4[8:1],5,,8,5-2[8:1],8,,6,1-4[8:1],6,,7,5-1[8:1],7,,6,5-7[8:1]*-8[8:1],,5,,2-4[8:1]*-5[8:1],,2<4[8:3],,7h[4:1],,,,
{16}26,,1,7,1,7,,,25,,,,,,,,
{8}1-5[8:1],6,,8,4-8[8:1],7,,5,1-5[8:1],6,,8,4-1[8:1],,6^4[8:1],,2h[4:1],,1^6[16:3],7^4[16:3],5,,,,
{16}8,,7,,62,,,,
{8}5-1[8:1],2,3,4,8-4[8:1],3,,1,5-1[8:1],2,3,4,8-4[8:1],3,,1,5>1[4:1],,1<5[4:1],,4,,2,1,4^5-8[8:3]/8^1-4[8:3],,,,,,,,
{12}2bpp4pp6[4:6]/6bpp8pp2[4:6],,,,,,,,,,,,,,,,,,,,,,,,4-2-5-8[8:11]/5-7-4-1[8:11],,,,,,,,,,,,,,,,,,Cf,,,,,,
3-5[12:1],,4-2v1[8:3],3,,,
,,,,,,
6-4[12:1],,5-2[4:1]*-8[4:1],6,,,
,,,,,,
7,,7,2-4[8:1],,2x,
{16}8,,8,,8,,8,,5>1[4:1],,,,1<1[2:1],,,,5h[4:1],,,,,,,,
,,,,7,,56,,8-6[8:1],,6/4-2[8:1],,8-4[8:1],,,,,,,,2,,43,,1-3[8:1],,3/5-7[8:1],,1-5[8:1],,,,,,,,7,,56,,8,,46,,1,,35,,2^7[8:1],,,,4>5b[4:1],,,,,,,,
{12},3,2,1x/4x,,2,4,3,4,5,4,6,4,7,4,8x,,1,7,1,6,1,5,1,4,1,3,1x>5[8:1],,,1,,,1q6[8:1]/2^5[8:1],,,
{16}21,,,,78,,,18,,,3-5[8:1]/6-4[8:1],,,,3b-1-6[4:1]/6b,,,,8,,
5,,,,1,,43,,2-4[8:1],,4/6-8[8:1],,2-6[8:1],,,,,,,,8,,56,,7-5[8:1],,5/3-1[8:1],,7-3[8:1],,,,,,,,1,,35,,2,,34,,7,,64,,8-4[8:1],,,,5<3b[4:1],,,,,,,,
{12},6,7,8/5x,,7,5,6,5,4,5,3,5,2,5,1x,,8,2,8,3,8,4,8,5,8,6,8x<4[8:1],,,8,,,1q6[8:1]/2^5[8:1],,,
{16}2<3[2:1]/1,,,,7h[2:1],,,,,,,,,,,,1,8,1,8,1b-3[8:1],,,,7-5[8:1],,,,4-2[8:1],,,,6-8[8:1],,,,1-4[8:1],,,,7-4[8:1],,,,4-1[8:1],,,,6-1[8:1],,,,3^6[8:1],,,,1^6[8:1],,,,4^1[8:1],,,,6^1[8:1],,,,5-2[8:1],,,,5-8[8:1],,,,5,,,,4,,37,,
{12}2-4[8:1]/6,,2,,C,,8-6[8:1]/5,,8,,C,,2/5-8[8:1],,5,,C,,3-8[8:1]/7,,3,,C,,1-4[8:1]/5x,,24,,C,,8-5[8:1]/4x,,75,,C,,1b-5[8:1]/6,,25,,C,,8b-4[8:1]/3,,7/4pp7-1v2-4b[1:3],,C,,,,,,,,,,,,,,,,,,,,,,,,,,,,,,,,,,,,,,,,,,,,5-7-4pp8[4:7],,,,,,3h[2:1],,,,,,,,,,,,2h[2:1],,,,,,,,,,,,1h[32:1]/7h[32:1],,,,,,45,,,,,,
{8}27,,36,36,36,36,36,36,78,34,21,56,
{16}2,1,5,6,8,7,3,4,2b/5,,,,7,,64,,8-6[8:1],,6-1[8:1]/5,,1-5[8:1]*-3[8:1],,,,,,,,2,,53,,1-3[8:1],,3-8[8:1]/4,,8-4[8:1]*-6[8:1],,,,,,,,8,,46,,7,,56,,1,,35,,2<5[4:1],,,,7>4b[8:2],,,,,,,,
{12},2,1,7b/8b,,6,1,4,1,7,1,3,1,8,1,2x,,5,8,5,3,5,7,5,4,5,6,5xw1[8:1],,,5,,,
{16}3v6[8:1]/7v4[8:1],,,,37,,,,1,7,3-7[8:1],8,,,3-5[8:1]/6-4[8:1],,,,6b/3b-1-6[4:1]`E5f,,,,8,,5,,,,1,,34,,2-5[8:1],,3/5-8[8:1],,8-4[8:1]*-6[8:1],,,,,,,,8,,65,,7-4[8:1],,6/4-1[8:1],,1-5[8:1]*-3[8:1],,,,,,,,1,,34,,2,,35,,8,,65,,7-3[8:1],,,,4<2b[4:1]/7,,,,,,,,
{12},7,8,2b/1b,,3,8,5,8,2,8,6,8,1,8,7x,,4,1,4,6,4,2,4,5,4,3,4xw8[8:1],,,4>5[1:1]*<3[1:1],,,,,,,,,,,,,,,,,,
{16}4,4,4,4,3bxpp4-8^1b[2:3]/5bxqxq4-8^1b[2:3],,,,,,,,,,,,,,,,,,,,,,,,,,,,,,,,1,,,,1,,,,1,,,,1-4^5[8:1],,5-8^1[8:1],,,,,,,,,
E
&inote_6=
