&title=空に映る水面
&artist=柳川和樹
&first=0
&des=不思議な夢の錬金術士phos
&lv_4=11+
&lv_5=13
&lv_6=14
&inote_4=(116)
{1},
{8}3hx[4:3],,,,,,6h[4:3],,
{8},,,5,4hx[1:1],,,,
{8},,,,,,,,
{8}6hx[4:3],,,,,,3h[4:3],,
{8},,,4,5hx[4:3],,,,
{8},,4hx[16:11],,,,,,
{8}A1,,,,,,,,
{8},,,,3/7h[4:1],4,5h[4:1],,
{8}4h[4:1],,B2,,3-5[8:1]/5,,,,
{8}2h[4:1]/6,5,4h[4:1],3,2,5,4/6-4[8:1],,
{8},2,1,8,7h[4:1],,5h[4:1],,
{8}3h[4:1],,1-5[16:5]*pp2[2:1],,,,,,
{8}7h[8:3],,,1h[4:1],,8,2/7,,
{8}B7,4,3,2,5h[4:1],,1x,,
{8}2h[4:1],,3h[4:1],,4,5,6,7,
{8}4h[4:1],,8x,2h[4:1],,6,7h[4:1]/3,,
{8},,4h[4:1],,6h[4:1],,,6,
{8}5,4,3,,2h[8:1]/8h[8:1],,1h[8:1]/7h[8:1],,
{8}3,4,5,6h[2:1],,3,2h[8:1],,
{8}2/6,,4/8,,1^6[4:1]/5^2[4:1],,,,
{8},,1v3[2:1]/5v7[2:1],,,,,,
{8},,E2,,C,,E6,,
{8}3x/7x,,C,,E4,,2x/6x,,
{8}E3,E6,B4,,3x/7x,,B8,,
{8}B4,,2x/6x-4[8:1],,,,E4,,
{8}6x/2x,,C,,E6,,7x/3x,,
{8}C,,D1,,Ch[4:3]/B3/B4/8hx[2:1],,,,
{8},,7h[4:1],,1h[4:1],,3qq4[2:1],,
{8}4,,5,,6h[4:3],,,5,
{8}5,4,4h[4:1],,3h[4:1],,2h[4:1],,
{8}5h[4:1],,6h[4:1],,7h[1:1],,6h[16:11],,
{8},,,,,,,,
{8},4,5,,3h[2:1]/6h[2:1],,,,
{8},,2h[4:1],,4,,3b/5b,6,
{8}5/7,6,4/5,3,2-4[8:1],,1-5[8:1]b,,
{8}8x,,7h[4:1],,1h[4:1],,3h[4:1],,
{8}1h[4:1],,8^5[8:1],,,,3x/4x,2,
{8}1/8,2,3/4,5,6-1[8:1],,4-1[8:1],,
{8}8,,2h[4:1],,4h[4:1],,5h[4:1],,
{8}7-4[8:1]b,,8,,2/8,,6b/4b,3,
{8}4/2,3,5/4,6,7-5[8:1],,8-4[8:1]b,,
{8}1x,,2h[4:1],,8h[4:1],,6h[4:1],,
{8}8h[4:1],,1^4[8:1],,,,6x/5x,7,
{8}7,5/6,4,4,5h[2:1]/6,,,,
{8}6,5,3/4,2,2,3/4,5,5,
{8}3/4h[2:1],,,,3,4,5/7x,,
{8}7/1x,,1/3x,,3/5hb[2:1],,7,,
{8}1x-5[8:5]b,,,,,,,,
{8}6h[4:3],,,,,,5h[4:3],,
{8},,,,4h[4:3],,E2,,
{8}C,,3h[4:3],,,,E6,,
{8}4h[4:3],,,,,,5h[4:3],,
{8},,,{16}E7,B6,{8}B5,3,2,1,
{8}8,7,6/C,,,,,,
E
&inote_5=(116)
{1},
{8}2qq5[8:5],,,,,,6p4[8:5],,
{8},,,3q5[8:9],2qq6[1:1],,,,
{8},,,,,,,,
{8}7pp4[8:5],,,,,,3q5[8:5],,
{8},,,6pp3[8:9],7p4[1:1],,,,
{8},,,,,,,,
{8}1,,,,,,,,
{8},5,4,3,2h[4:1]/4,5,6h[4:1],,
{8}5h[4:1],,4h[4:1],,3h[4:1],,5,,
{8}4/6h[4:1],5,7,6,5,4,3/7-4[8:1],,
{8},1,2,3,1^6[4:1],,6^3[4:1],,
{8}3>4[8:5]*<2[8:5],,,,,,,,
{8}3/8,4,5,1h[8:3]/6V47[4:1],,6,,,
{8},4,3h[4:1]/5,4,5-7[8:1],4,3,,
{8}8h[4:1],,2h[4:1],,4,5,6h[4:1]/4,5,
{8}4V25[4:1],5,6,7qq1[8:3],,7,3h[4:1],,
{8},,2V47[4:1]/8h[2:1],,,,,8,
{8}1,2,3h[4:1]/8-5[8:1],,8^3[8:1],,5h[4:1],,
{8}4,5,6,3q4[8:3]/7,,8,7q8[8:7],,
{8}7,,1,,3h[2:1],,,,
{8}1V72[4:3],,5V36[2:1],,,,,,
{8},,3,,4h[4:1],,5-7[8:1],,
{8}7,,5h[4:1],,4-2[8:1],,2,,
{8}4h[4:1],5,6-8[8:1],,8,,6h[4:1],,
{8}5-3[8:1],,4-6[8:1],,,,4-2[8:1],,
{8}2,,4h[4:1],,5-7[8:1],,7,,
{8}5h[4:1],,4>5[2:1],,4,,3,,
{8}1h[4:1],,3h[4:1],,5h[4:1],,7^2[4:1],,
{8}2^5[4:1],,5^8[4:1],,1h[8:3],,,8,
{8}1,2,3h[4:1]/8-6[8:1],,8-5[8:1],,8-4[8:1],,
{8}1-3[8:1],,1-4[8:1],,1w5[8:7],,,,
{8},,,,,,,,
{8},3h[4:1],4h[4:1],,3,4,5/4-1[8:1],5/4,
{8},,2-4[8:1]/8-4[8:1],,2/8,,5b/6b,7,
{8}3/4,{24}2,1,2,{8}8-4[8:1],4/6,2-6[8:1]/8,,2/8-3[8:1]*-5[8:1],,
{8}8,,6/2pp5[8:3],,8^5[8:1],,8qq1[8:3],,
{8}4qq5[8:3],,4,,,,4/6,3,
{8}2/4,{24}6,4,6,{8}5-2[8:1],1/7,3-6[8:1]/5,,3/7-4[8:1],,
{8}1w5[8:1]/7,,1,,3-8[8:1]/7-4[8:1],,3/7,,
{8}5/1^4[8:1]*-4[8:1],,1^6[8:1]*-6[8:1],,1,,4b/3b,2,
{8}6/5,{24}7,8,7,{8}1-5[8:1],5/3,7-3[8:1]/1,,1-6[8:1]*-4[8:1]/7,,
{8}1,,3/7qq4[8:3],,1^4[8:1],,1pp8[8:3],,
{8}5pp4[8:3],,5,,,,5/3,6,
{8}7,5/6,3<2[8:3],2,3/8h[8:3],,,,
{8}5,7,4/6,3,2,4/3,6>7[8:3],7,
{8}6/2h[8:3],,,,4,2,8-4[8:1],,
{8}7-3[8:1],,6-2[8:1],,4-8[8:1],,3-7[8:1],,
{8}2w6[2:1],,,,,,,,
{8}3h[4:3]/5,,4,,5,,6h[4:3],,
{8}5,,4,,3h[4:3],,4,,
{8}5,,6h[4:3],,5,,4,,
{8}2h[4:3],,3,,5,,7h[4:3],,
{8}6,,4,,2,4,6,8,
{8}3,5,7`Ch[384:1],,,,,,
E
&inote_6=(116)
{1},
(38.666)
{24}2/5,4,3,2,3,4,5,4,3,2,3,4,5,4,3,2,3,4,5,4,3,2,3,4,
{24}6,5,6,7,6,5,4,5,6,7,6,5,4,5,6,7,6,5,4,5,6,7,6,{48}5,4,
{24}3,,,,,,,,,,,,3h[6:1]/4h[6:1],,,,,,4h[6:1]/5h[6:1],,,,,,
{24}5h[8:1]/6h[6:1],,,,,,5h[8:1]/7h[12:1],,,6,5,4,3>6[4:1]/6,,5h[12:1],,4h[12:1],,3,,,,,,
{24}1-5[24:1],8,7,2/6h[12:1],,8,1/5,,7-4[24:1],3h[12:1],5,4,2-5[24:1]/6,1/8,3/7,,1h[12:1]/4,,2,,2V41[12:1],6h[12:1],4,5,
{24}3/7qq4[8:1],1/8,2/6,5,,1h[8:1]/8,7>5[12:1],,,,5/6,,2v5[24:1]/7,,,3/7,4qq4[12:1],5,2/6^1[24:1],,3/5h[12:1],,4,,
{24}6pp4[8:1],5,4,3/7h[12:1],,3,4<2[8:1],,1h[12:1],,3h[12:1],,4w8[6:1],,,,8,,4,,,,,,
{24}3h[12:1],,4-2[24:1],,5h[12:1],,6,,7-5[24:1],,8h[12:1],,1,,2-8[24:1],,3h[12:1],4,5,,6-4[24:1],,7-3[24:1],,
{24}8,,1-5[24:1],,5,,3/7,,6-2[24:1],,5h[12:1],,4,,3v5[24:1],,2v8[24:1],,1v4[24:1],,8,,7,,
{24}6^3[24:1],,5h[12:1],,4,,2h[12:1],,4h[12:1],,5h[12:1],,7h[12:1],,,6,5,4,3qq1[24:1],,8-4[24:1],,5pp7[24:1],,
{24}6p2[24:7],,6,,6,,6h[24:5],,,,,{48},5,{24}4,,,,,{48}4,5,{24}6h[12:1],,3,2/7,1/8,1/8,
{24}1/8,,2h[8:1]/4,,1h[24:1],,7b-4[24:1]/4b,6,5/1-5[24:1]*-6[24:1],{72}2,8,2,{24}8-3[24:1]*-4[24:1],4/6,3-7[24:1]/7,,1,,8,,1v4[24:1]*v6[24:1],,5pp1[8:1]*qq1[8:1]/8,1,3/7,,
{24}1,,,,,,3-6[24:1]/8,4,1/5-8[24:1],{72}7,4,7,{24}4-1[24:1],2/8,7-3[24:1]/3,,1/5-1[24:1],,4-8[24:1]/8,,2h[12:1],,,,7,,
{24}2/6,,5/7h[8:1],,8h[24:1],,2b-5[24:1]/5b,3,4/8-4[24:1]*-3[24:1],{72}7,1,7,{24}1-6[24:1]*-5[24:1],5/3,6-2[24:1]/2,,8,,1,,8v5[24:1]*v3[24:1],,4qq8[8:1]*pp8[8:1]/1,8,6/2,,
{24}8,,,,,,1/6<5[8:1],5,4,3/8,4,5,1h[8:1]/6,,,,1,2,3>4[8:1]/8pp3[8:1],4,5,1/6,5,4,
{24}3/8,,,,8,7,5/6w2[24:1],,1w5[24:1]/8,,3/4w8[4:1],,,,,,,,,,,,,,
{24}2/5,4,3,2,3,4,5,4,3,2,3,4,5,4,3,2,3,4,5,4,3,2,3,4,
{24}6,5,6,7,6,5,4,5,6,7,6,5,4,5,6,7,8,1,2`Ch[384:1],,,,,,
E
