&title=BANG BANG BANG [VERY SHORT!!]
&artist=BBpanzu
&first=0
&des=zuri
&lv_5=??
&inote_5=(133.3)
{8}
5,6,7b/8b,,4,3,1b/2b,,,
67,54,23,1-5[8:1],8-4[8:1],1b,8b,
5pp5[4:1]`5?qq5[44.33#12:1],
2,3b,,8,1,2b,,,
53,62,17,8w4[8:1],,
{32}
A8,B8,Cf,B4,A4,,,,
{8}
,65,8-2[8:1],7-3[8:1],8-4[8:1],7-5[8:1],8,7,,
34,1-7[8:1],2-6[8:1],1-5[8:1],2-4[8:1],1,2,,
18,27,63,5/4qq4[4:1]*pp4[4:1],,,,,
54,5h[8:1]/4h[8:1],
{64}
E6/E4,B6/B3,B7/B2,E2/E8,,,,,
{8}
18,72,Cf,,
{4}
(133)
7-5[16.6875#48:1]/4b,1-5[16.6875#48:1]/5b,8-4[16.6875#48:1]/3b,2-4[16.6875#48:1]/4b,
7/4b,
{8}
81,72,5h[4:1]/4h[4:1],,,,
{4}
7b`1h,1b`8h,8b`2h,2b`8h,
{8}
,18,2,7,1-4[8:1]/8-5[8:1],,
{32}
E8/E2,B7/B2,B6/B3,E6/E4,,,,,
{4}
7-5[16.6875#48:1]/4b,1-5[16.6875#48:1]/5b,8-4[16.6875#48:1]/3b,2-4[16.6875#48:1]/4b,
7/4b,
{8}
45,72,1h[4:1]/8h[4:1],,,,
{4}
7b`1h,1b`8h,8b`2h,2b`8h,
{8}
,18,7,2,1-4[8:1]/8-5[8:1],,
{32}
E8/E2,B7/B2,B6/B3,E6/E4,,,,,
E
