&title=Lost Requiem
&artist=Ludicin
&first=0
&des=「将来」- Final Hymn
&lv_6=15+
&inote_6=(100){1},,
{4}3,,5h[2:1],,,,2,,1^4[1:1],,5h[2:1],,,,,,2/6,,5h[2:1],,,,1,,1-3-5[1:1],,5h[4:1],,6h[4:1],,
{8}7h[4:1],5,4,3,2>5[1:1]/8h[4:1],,,,7h[4:1],,,,6h[4:1],,,,3/5,2,4/6,7,8^5[1:1]/4h[4:1],,,,3h[4:1],,,,2h[4:1],,,,B4/B7,,B2/B5,,
{8}1V35[1:1]/6h[4:1],,,,7,7h[4:1],,,8h[4:1],,,,6h[4:1],,,,8-6-4[1:1]/3h[2:1],,,,,,1,2,3h[2:1],,,,B5,,B6,,7h[2:1]/1pp6[1:1],,,,,,,,3h[8:7],,,,5h[8:1],,6h[8:1],,7pp4[1:1]/4h[4:3],,,,,,,,3h[4:1],,,,3h[8:1]/7h[8:1],,2h[8:1]/6h[8:1],,1-5-3[2:1]/5h[8:1],,6,7,8h[4:1],,,,7-1-5[2:1]/3h[8:1],,2,3,4h[4:1],,,,1-3-5[1:1]/6,,6,7,8h[8:1],,1h[8:1],,2h[16:15],,,,6h[16:7],,,,
{64}2b/6b,5/1,4/8,3/7,2pp8b[16:55]/6pp4[16:55],,,,{8},,,,,,,3h[4:1]/7h[4:1],,,,2h[4:1]`6h[4:1],,,,1bh[1:1]/5bh[1:1],,,,,,,,,,,,,,,,{64}8bqq3b[2:7],1/7,2/6,3/5,4qq7[16:55],,,,{8},,,,,,,1h[8:3]/5h[8:1],,6h[8:1],,3h[4:1]/7h[4:1],,,,1h[2:1]/5h[2:1],,,,,,,,2bh[2:1]/6bh[2:1],,,,,,,,
(200){8}8/1,7,6/4,3,2^5[8:1],8-4[8:1],2,8,3,2,1/5,6,7-3[8:1],3-7[8:1],7,2,1,8,4/7,3/6,2h[4:1]/5h[4:1],,,1,2^5[8:1],5,6,7,8^5[8:1],4,3,2,1,2,3/5,6,7^4[8:1],1-5[8:1],7,1,6,7,8/4,3,2-6[8:1],6-2[8:1],2,7,8,1,5/2,6/3,7h[4:1]/4h[4:1],,,5/2,{16}2,4,3,4,1,5,4,5,8,6,5,6,8,1,2,3,{8}4h[16:1]/6h[16:1],7h[16:1],8h[16:1]/3h[16:1],4h[16:1],5^2[8:1],8-4[8:1],5,8,1h[8:1],7h[8:1],3h[8:1],4h[8:1],2-5-3[8:1]/6,3-8[8:1]/5,2/6,,7h[8:1],4h[8:1],5h[8:1],1h[8:1],8<3[4:1]/2h[8:1],,2,1,8h[8:1],5h[8:1],1h[8:1],5h[8:1],2h[8:1],5h[8:1],3h[8:1],5h[8:1],2,3,4/6,7,8p4[8:1],2^5[8:1],8,2,6,7,8/4,3,2-6[8:1],6-2[8:1],2,7,8,1,5/2,6/3,7h[8:1]/4h[8:1],,2h[8:1]/5h[8:1],,1h[4:1]/8h[4:1],,,,{16}8bw4b[8:1],,,8b,,,,,
{16}2b^5[8:1]/6b,,,8,2,,7,,1,7,3,4,2,8,5,6,4bh[16:1]/7-4-6-8[4:1],,,,2-6[8:1],,3,,2,,,8,2/7,,5/4,,1/7^4[8:1],,,1,7,,2,,6,5,7,3,4,2,7,1,7-5-3[8:1],,8,,1,,2,,2-4-6[8:1],,5,,6,,7,,8b-5-7[8:1],,,1,8,,2,,8,2,6,5,7,1,4,3,5bh[16:1]/2-5-3-1[4:1],,,,7-3[8:1],,6,,7,,,1,2/7,,4/5,,1b-5-3[8:1],,,8,1,,7,,7,1,7,1,8,8,8,8,2v5-3-1[4:1],,3,,5/2,,6,,1/7^4[8:1],,6,,{32}7/8,1,2,3,{16},,7b^4[8:1],,,1,7,,2,,8,2,6,5,7,1,4,3,5bh[16:1]/2-5-3-8[4:1],,,,7-3[8:1],,6,,7,,,,7/1,6,4/5,,8/2^5[8:1],,,8,2,,7,,3,4,2,6,5,7,2,8,2>5[8:1],,1,,8,,7,,7<4[8:1],,4,,3,,2,,1b-3-5[8:1],,,8,1,,7,,1,7,3,4,2,8,5,6,4bh[16:1]/7-4-6-1[4:1],,,,2-6[8:1],,3,,2,,,,2/8,3,5/4,,8b-6-4[8:1],,,1,8,,2,,2,8,2,8,3,3,7,7,7v4-6-8[4:1],,6,,4/7,,3,,2^5[8:1],,3,,{32}2/1,8,7,6,{16},,
{16}7-5-8[16:3],,,1,7,,2,,2>5[8:1],,8p4[8:1],,2,,8,,4x,,3x,,2/8,,7,,6-1[8:1]/1,,2v5[8:1]/7,,6,,2,,7^4[8:1],,,1,7,,2,,3v8[8:1],,7^4[8:1],,3,,7,,1h[16:1],,1h[16:1],,2h[16:1]/6,,2h[16:1],,3h[16:1]/5,,3h[16:1],,4,6,4,6,5v2[8:1],,,8,5,,7,,3v8[8:1],,7-4[8:1],,3,,7,,1-5[8:1],,2/5-1[8:1],,1,,6,,7-3[8:1],,3-7[8:1]/6,,7,,2,,1-3-5[8:1],,,8,1,,7,,1-5[8:1],,7^4[8:1],,1,,7,,2^7[8:1],,3,,4,,5,,6^3[8:1],,7,,8,,1,,2-4-1[16:3],,,8,2,,7,,6^3[8:1],,1v6[8:1],,6,,1,,4,,5,,6/1,,2,,3-8[8:1]/8,,7v4[8:1]/2,,3,,7,,2^5[8:1],,,8,2,,7,,6v1[8:1],,2^3^4^5b[8:1],,6,,2,,8-4[8:1],,4,,3,,2,,1-5[8:1],,5,,6,,7,,8^5[8:1],,,4,8,,3,,2v5[8:1],,6-1[8:1],,2,,6,,4-8[8:1],,3/8-4[8:1],,4,,7,,6-2[8:1],,2-6[8:1]/7,,6,,3,,4-2-8[8:1],,,5,4,,6,,5-1[8:1],,3^8[8:1],,5,,3,,7bh[16:3],,,,{32}2b,E3,B3,B4,,,7b,E8,B8,B1,,,,3b,2,1,,,7b,6,5,,,,
{16}2,8,4,5,3,6,4,5,3-5-2[8:1],,6h[4:1],,,,,,7,8,6,2,1,3,5,4,6-4-8[8:1],,3h[4:1],,,,,,2b-5-3[16:3],,,8,2,,7,,6-8-5[16:3],,,4,6,,3,,2-4-8[16:3],,,4,2,,5,,6-1[8:1],,2v5[8:1],,6,,2,,8^5[8:1],,,1,8,,3,,2^5[8:1],,,8,2,,7,,6^1[8:1],,,4,6,,3,,2^5[8:1],,7v4[8:1],,2,,7,,1^4[8:1],,,1,1h[8:1],,,,7v4[8:1],,,7,7h[8:1],,,,{16}8,1,2,3,1/4,2,3,4,8,7,6,5,1/4,8,7,6,{16}2-4-1[16:3]/5,,,8,2,,7,,6-8[8:1],,1>4[8:1],,6,,1,,5,,6,,7/1,,2,,3-8[8:1]/8,,7v4[8:1]/2,,3,,7,,2^5[8:1],,,8,2,,7,,6-4[8:1],,3^8[8:1],,6,,3,,7h[8:1],,4h[8:1],,6h[8:1],,3h[8:1],,5h[8:1],,2h[8:1],,4h[8:1],,1h[8:1],,3bx-5-7[8:1]*-6[8:1],,,1,3,,2,,3V51[8:1],,,5,3,,7,,8bx-6-4[8:1]*-5[8:1],,,2,8,,3,,1-3-5[8:1]*^4[8:1],,,7,1,,8,,7b,,3x,4x/2x,,6x,5x/7x,,2b/4b,,7x,6x/8x,,2x,3x/1x,,7,6,5,4,3/8,7,6,5,{24}4/1,8,7,6,5,4,2,1,8,7,6,5,{16}4h[16:1],8h[16:1],3h[16:1],7h[16:1],2h[16:1],6h[16:1],1h[16:1],5h[16:1],8h[16:1],4h[16:1],7h[16:1],3h[16:1],{24}2,1,8,7,6,5,
{4}4bh[1:1]/2b^8^7^6^5b[2:7]*-8-6b[2:5],,,,,,,,3h[2:1],,,,2h[2:1],,,,6b^5^4^3^2^1^8^7^6b[2:5]`2b<2b[2:5],,,,,,,,,,,,1bh[4:1]/5bh[4:3],,2h[4:1],,3bqq6b[2:3]`7bqq2[2:3],,,,,,,,4bpp3b[2:3]`8bpp7[2:3],,,,,,,,1h[4:1]/6h[1:2],,8h[2:3],,,,,,,,,,{12}5/3,,2,,,8,{16}1/7,,,,{32}2,3,4,5,6,7,8,1,
(190){16}6bqq5b[2:3]/2bh[4:1],,,,,,,,1h[4:1],,,,,,,,
(180){16}8h[4:1],,,,,,,,7h[4:1],,,,,,,,
(170){16}2qq1b[2:3]/6h[4:1],,,,,,,,5h[4:1],,,,,,,,
(160){16}4h[4:1],,,,,,,,3h[4:1],,,,,,,,
{16}2/8h[4:1],,2,,2,,1h[4:1]/7,,7,,7,,2,2,8,3,7/4h[4:1],,7,,7,,6h[4:1]/3,,3,,3,,5,4,6,3,2h[4:1]/7,,7,,7,,8h[4:1]/3,,3,,3,,7,7,4,6,5h[4:1]/3,,3,,3,,6h[4:1]/2,,2,,2,,1,7,1,7,
{16}2,2,5,5,4,4,7,7,3,6,3,6,4,7,4,7,5,5,8,8,2,2,5,5,4,6,4,6,3,5,3,5,2,2,8,8,4,4,6,6,3,5,3,5,4,6,4,6,5,5,8,8,2,2,5,5,8,1,2,3,{32}4/8,1,2,3,4,5,6,7,8/4h[2:1],1,2,3,,5,6,7,8,1,2,3,,5,6,7,E8,E1,E2,E3,E4,E5,E6,E7,B7,B8,B1,B2,B3,B4,B5,B6,{16}B7/B8f,,1,1,6,2,6,2,7,7,3,3,5,5,1,1,2^3^4^5b[8:1]/8,,1,8,2,,7,,6^7^8^1b[8:1]/4,,5,4,6,,3,,2,8,3,7,{24}4,6,4,{16}6,3,5,2,4,1,{24}3b,2,1,8,7,6,{32}5h[2:1]/2b,1,8,7,6,,4,3,2,1,8,7,6,,4,3,E2,E1,E8,E7,E6,E5,E4,E3,B2,B1,B8,B7,B6,B5,B4,B3,{16}B2/B1f,,7,8,6,1,6,1,7,7,4,4,8,8,3,3,1^6[8:1]*-7-5[8:1],,4,4,1,,3,,2-5[8:1]*-4-6[8:1],,1,8,2,,8,,7,1,6,2,{24}5,3,5,{16}3,6,2-5-3b[8:1],7,1,8h[16:3],2,,,,
{16}1/7v4[8:1],,8,1,7,,3,,8,8,1,7,3,3,4,2,6^1[8:1],5,7,4,6,,3h[8:1],,5h[8:1],,2h[8:1],,7^4[8:1],,8/2,,7/1h[16:1],,2h[16:1],,5h[16:1],,6h[16:1],,7h[8:1]/1-5[8:1],,2,,7^4[8:1]/1,,8,,1/7,,2,2,8,8,3,3,7,7,8,6,3^2^1^8b[8:1],4,2,5,3,,7,7,4,4,8,8,2,2,1,3,6-4-7[8:1],4,7,3,6,,2,2,8,8,3,3,7,4,7,4,6^1[8:1],3,5,4,6,,2,2,6,6,3,3,6,6,5,7,2v5[8:1],1,3,8,2,,7,7,{24}1,2,3,{16}6/4,6,2,2,8,8,2^5[8:1],,7/1,,2,,,6,6,,7/1,,2/8,,6,6,1,1,7,7,4,4,5,3,6,6,5,7,1,1,8,2,7,3,7,3,4/6,,3^2-8[8:1],5,,5,3,,6,,7v4[8:1],1,,1,7,,2,8,3,7,{24}4,6,4,{16}6,3,7,2,6,1,7v4[8:1],,6/4,,7,,,2,2,,3/8,,6/4,,1,1,7,7,3,3,7^6^5^4b[8:1],8,6,8,7,,3,,2^5b[8:1],1,3,8,2,,7,,1,1,6,6,3,3,8,8,2,2,4,4,5,5,7,7,2,2,5,5,4,4,8,8,3,3,1,1,8,8,6,6,
{4}1b>1b[1:2],,,,,,,,1b-3-5-7-1b[2:3],,,,,,,Cf,{16}1/7,,3,2/4,,6,5/7,,8bw4b[8:1]/4b,,,,,,,,8/2,,6,7/5,,3,4/2,,1bw5b[8:1]/5b,,,,,,,,6/2,,4,5/3,,8,1/7,,2bw6b[8:1]/6b,,,,,,,,4/8,,5,4/6,,1,8/2,,3h[8:1]/7-3[8:1],7,7,7,7,,,,
(170){16}2^5[8:1]*-4-6[8:1]/8,,1,8,2/7,,8,,1-6-4[8:1]/2,,4v7[8:1]/6,,,,,,2^5b[8:1],8,,8,2,,7,,6^1b[8:1],4,,4,6,,3,,4/8-6-4[8:1]*-5[8:1],,7,5,8/4,,3,,1-4-6[8:1],,2/6-2[8:1],,,,,,8,8,1,7,3/6^7^8^1b[8:1],,5,3,6/2,,2bx,8bx,3x/7bh[8:1],3,3,3,2x-4-6[8:1]*^3-5[8:1]/6,,3,5,2/6x,,7,,8-4-8b[4:1],2,7,3,8,,A4f/2b,2,1x-4-2-8[4:1],,7/8,,,,,,6,6,4,5,2,2,2,2,8-6-4[8:1]*^5[8:1]/2,,1,2,8,,2,,1,,5,4/6,,,1,1,8/2,,4,5/3,,,7,8,1/6,,4,4,{32}7bx,6,5,4,3,2,1,8,
{32}7^4[8:1]*-5-3[8:1]/B7f,C,B3,A3,{16}2,2,7,,3,3,8,1,7,2,{32}7,B7f,C,B3,A3,1,,,2/D3f/6^1[8:1]*-8[12:1],D4,D5,,{16},,6,,3,3,8-5-7[8:1],2,7,3,8/2,2,2,,{32}1^4[8:1]*-3-5[8:1]/B1f,C,B5,A5,{16}6,6,1,,6,6,2,7,1,6,{32}2/B3f,B4,E5,7,,,,,8^2^5[16:3]*-2-4[8:1]/E8f,B6,A5,,{16},,,,7,7,6/8,,,1/5,2,2,2,2,2-5-3[8:1],,1,8,2,,8,8,{32}1/7b,6,5,4,{16}2,2,7,3,7,3,8^5[8:1],,3,3,8,,1h[16:1],,{32}8b/E3f,B3,B4,E5,{16},,6,6,6,6,6^1[8:1],,5,4,6,,3,3,3b,,6,5b/7b,,,2,2,1b/3b,,6,5b/7b,,3,2b/4b,,7,6b/8b,,2,1b/3b,,,,
{16}7b^6^5^4b[8:1],,8,1,7,,2,,3^2^1^8b[8:1],,4,5,3,,6,,1/8,7,6,5,4/3,5,6,7,8/2,3,4,5,6/8,5,4,3,6b^7^8^1b[8:1]/2b,,5,4,6,,3,,2^3^4^5b[8:1],,1,8,2,,7,,6,7,8,1,2/3,1,8,7,6/4,3,2,1,8/6,1,2,3,4/6bv1b[8:1],,7,5,6,,3,,2bv5b[8:1],,3,1,2,,8,,3bv8b[8:1],,2,4,3,,6,,7bv4b[8:1],,6,8,7,,1,,2b/8b,,6,,1b/7b,,4,,2b/6b,,8,,4b/6b,,2,,8bh[16:1]/6bh[16:1],,1bh[16:1]/3bh[16:1],,7bh[16:1]/5bh[16:1],,2bh[16:1]/4bh[16:1],,1bh[16:1]/8bh[16:1],,6bh[16:1]/4bh[16:1],,
{32}2,3,4,5,6,7,8,1,{12}5bh[24:1]/2bh[3:1],5bh[24:1],5bh[24:1],5bh[2:1],,{48}B2,C,B6,A6,,,,,,E6,B5,B4,A3,,,,E3,B2,B1,A8,,,{24}7,6,5,{12}1bh[24:1]/4bh[3:1],1bh[24:1],1bh[24:1],1bh[2:1],,{48}B4,C,B8,A8,,,,,,E1,B1,B2,A3,,,,E4,B4,B5,A6,,,{64}2bx,3bx,4bx,5bx,6bx,7bx,8bx,
(85){32}1bx-5b[16:1],,6`1,6h[32:1]`1h[32:1],,7`2,7h[32:1]`2h[32:1],,1b/Cf,,6h[32:1],4h[32:1],{24}7`3,7h[64:1]`3h[64:1],7h[64:1]`3h[64:1],{32}8b-4b[16:1],,3`8,3h[32:1]`8h[32:1],2`7,2h[32:1]`7h[32:1],,,8b/Cf,,2,2h[32:1],{64}7,3,7,3,7,3,7,3,{32}8b-4b[16:1],,7`1,7h[32:1]`1h[32:1],,6`2,6h[32:1]`2h[32:1],,8b/Cf,,3h[32:1],5h[32:1],{24}2`6,2h[64:1]`6h[64:1],2h[64:1]`6h[64:1],{32}1b-5b[16:1],,2`8,2h[32:1]`8h[32:1],3`7,3h[32:1]`7h[32:1],,,1b/Cf,,7,7h[32:1],{64}2,3,4,5,6,7,8,1,{32}2b^5b[16:1],,3`8,3h[32:1]`8h[32:1],,4`7,4h[32:1]`7h[32:1],,2b,,6hx[32:1],4hx[32:1],{24}7h[24:1]`3h[24:1],,7h[64:1]`3h[64:1],2h[64:1]`8b^5b[16:1],2h[64:1]`8h[64:1],2h[64:1]`8h[64:1],1h[64:1]`7h[64:1],1h[64:1]`7h[64:1],1h[64:1]`7h[64:1],2b`8b,,,Cf/B1/B2/B3/B4/E2/E3,,,{32}7b^4b[16:1],,6`1,6h[32:1]`1h[32:1],,5`2,5h[32:1]`2h[32:1],,7b,,3hx[32:1],5hx[32:1],{24}2h[64:1]`6h[64:1],2h[64:1]`6h[64:1],2h[64:1]`6h[64:1],{48}1b/7hb[8:1],2,3,4,5,6,,8,1,2,3,4,5bh[8:1]/7b,6,,4,3,2,1,8,7,6,5,4,
{32}3bh[16:3]/7bh[16:3],,,,,,{64}8bx/4bx,1x/5x,2x/6x,3x/7x,{16}4bh[4:1]/8h[32:1],{96}E1,B1,B2,A3f,,,,,,B3,C,B7,A7,,,,,,6bh[4:1],,,,,,E4,B3,B2,A1f,,,,,,B1,C,B5,A5,,,,,,2bh[4:1],,,,,,E6,B5,B4,A3f,,,,,,B3,C,B7,A7,,,,,,8bh[8:1],,,,,,B2,C,B6,A6f,,,,,,E6`8b,B5,B4,A3,,8b,,,,4bh[4:1],,,,,,E1,B1,B2,A3f,,,,,,E4,B4,B5,A6,,,,,,7bh[8:1],,,,,,E4,B3,B2,A1f,,,,,,B1`7b,C,B5,A5,,7b,,,,{24}8b/3b,1,2,8bh[48:1]/3bh[48:1],7bh[48:1]/2bh[48:1],6bh[48:1]/1bh[48:1],5bh[16:1]/8bh[8:1],,,{64},7,6,5,4,3,2,1,8bh[4:1],,,,{96}E1,B8,B7,A6f,,,,,,B6,C,B2,A2,,,,,,3bh[4:1],,,,,,E6,B6,B7,A8f,,,,,,B8,C,B4,A4,,,,,,7bh[4:1],,,,,,E4,B4,B5,A6f,,,,,,B6,C,B2,A2,,,,,,1bh[8:1],,,,,,B7,C,B3,A3f,,,,,,E4`1b,B4,B5,A6,,1b,,,,5bh[4:1],,,,,,E1,B8,B7,A6f,,,,,,E6,B5,B4,A3,,,,,,2bh[8:1],,,,,,E6,B6,B7,A8f,,,,,,B8`2b,C,B4,A4,,2b,,,,{24}1b/6b,8,7,1bh[48:1]/6bh[48:1],2bh[48:1]/7bh[48:1],3bh[48:1]/8bh[48:1],
(80){24}4bh[16:1]/1b-5b[32:1],,,{64},,1h,3h,1h,3h,1h,3h,{32}1bh/Cf,,,,,,{128}2,3,4,5,6,7,8,1,{32}6bh[16:1]/2b-6b[32:1],,,6bh[8:1],,,,,2b/3bh[16:1]/Cf,,,3bh[8:1],,,,,{32}1bh[16:1]/7b-3b[32:1],,,1bh[8:1],,,,,7b/6bh[16:1]/Cf,,,6bh[8:1],,,,,1b^6b[32:1]/3bh[16:3],,,,,,,,A1f/5bh[16:1],,,5bh[8:1],,,,,
(75){64}2-6b[32:1],3,4,5,6,7,8,1,2,6h,2h,6h,2h,6h,2h,6h,{32}2b/Cf,,,,,,{128}7,6,5,4,3,2,1,8,{32}3bh[16:1]/7b-3b[32:1],,,3bh[8:1],,,,,7b/6bh[16:1]/Cf,,,6bh[8:1],,,,,{32}8bh[16:1]/2b-6b[32:1],,,8bh[8:1],,,,,2b/3bh[16:1]/Cf,,,3bh[8:1],,,,,8b^3b[32:1]/6bh[16:3],,,,,,,,A8f/4bh[16:3],,,,,,,,
(150){4}8x^1^2^3^4^5^6^7^8-2-4-6-8b[2:5],,,,3x,,,,1x
,,,,
(140){4}4hx[16:13]/6hx[1:1],,,{32},,,3,2h[8:3],,,,{16},,,,6h[4:1],,,,{64}3h[16:1],,,,5h[64:3],,,3h[64:3],,,5h[64:3],,,4h[64:3],,,6h[64:3],,,4h[64:3],,,6h[64:3],,,3h[64:3],,,5h[64:3],,,3h[6400:292],,
(130){64},6h[64:3],,,4h[64:3],,,6h[64:3],,,3h[64:3],,,5h[64:3],,,3h[64:3],,,6h[64:3],,,4h[64:3],,,5h[64:3],,,3h[64:3],,,6h[64:3],,,4h[64:3],,,6h[64:3],,,3h[64:3],,,5h[64:3],,,3h[64:3],,,6h[64:3],,,4h[64:3],,,6h[64:3],,,3h[64:3],,,5h[64:3],,,{4}2h[4:7],,,,5h[4:3],,,,
(100){8}1bpp6b[1:1]/7h[4:1],,,7,6s2b[2:1],,,,,,,,3h[4:1]/5h[4:1],,,,4h[4:1]/6pp1[1:1],,,,3h[4:1],,,2,1s5[2:1],,,,,,6h[8:1],,7h[4:1]/3-5-1[2:1],,,,8h[8:1],,7h[8:1],,6-2-4[2:1]/2h[2:1],,,,,,,,{16},7h[16:11]`3h[16:3],,,,,,,2h[4:1],,,,,,,,{8}1s5[2:1]/6h[4:1],,,,,,,,2v5[2:1]/8h[2:1],,,,,,,,7q5[2:1]/1h[4:1],,,,2h[4:1],,,,3h[4:1]/6^1[2:1],,,,4h[4:1],,,,5h[4:1]/3qq4[2:1],,,,6h[1:1],,,,4h[4:3],,,,,,,,3h[2:1]/7h[2:1],,,,,,2h[8:1]/6h[4:5],,2h[2:1],,,,,,,,1w5b[2:1],,,,,,,{64}2qq3b[2:1],3,4,5,6,7,8,1,
(200){8}2bh[2:1]/6h[2:1],,,,,,7,7,7h[2:1],,,,,,8/3,8/3,8pp7b[1:1]/3h[1:1],,,,,,,,,,,,1,2,3/5,4/6,5qq8b[1:1]/7,,,,6,,6h[4:1],,,,,,5/1,,6/8,,7h[2:1]/6v1^2^3^4b[1:1],,,,,,,,7h[8:7],,,,3h[8:3],,,,{32}7b^6^5^4^3^2^1^8^7b[1:3]/3b,8x/4x,1x/5x,2x/6x,{8}3hx[8:5]/7x,,,,,,,4h[2:1],,,,,,5,5,5-3-1-7[4:3],,,,,,,,4h[4:3],,,,,,{32}3,2,1,8,7,6,5,4,{8}3^4^5^6^7^8^1^2^3[1:3]/8bh[4:3],,,,,,,,1h[2:1],,,,,,2,2,2h[4:7],,,,,,,,,,,,,,{24}3,4,5,6,7,8,{4}1bxs5b[2:3],,,,,,,,2^3^4^5b[2:1]/8h[4:7],,,,6^5^4^3>2b[2:1],,,,7pp6b[1:1]/4h[2:1],,,,3h[2:1],,,,2h[8:1]/5q1b[2:1],,,,3h[8:5],,,{32}2,1,8,7,6,5,4,3,
{16}7^4[8:1]/2b,,,1,7,,2,,3v8[8:1],5,,5,3,,6,,7^4b[8:1]/2,,,1,7,,2,,6v1b[8:1],4,,4,6,,3,,2^5[8:1]/7,,,8,2,,7,,6v1[8:1],4,,4,6,,3,,2^5b[8:1]/7,,,8,2,,7,,3v8b[8:1],5,,5,3,,6h[16:1],,7bhx[8:1]/1bhx[8:1],,,7bh[8:1]/1bh[8:1],,,6h[16:1],,4bh[8:1]/5bh[8:1],,,4bh[8:1]/5bh[8:1],,,3h[16:1],,2bh[8:1]/8bh[8:1],,,2bh[8:1]/8bh[8:1],,,7h[16:1],,4bh[8:1]/6bh[8:1],,,4bh[8:1]/6bh[8:1],,,3h[16:1],,
(200){16}2,5,2,5,3,6,3,6,4,7,4,7,{32}4,5,6,7,8,1,2,3,{8}4bh[2:1]/8h[4:1],,,,{32}8bw4b[8:1],,,,,,,{8},,
(210){16}2bh[8:1],,6,5,7h[8:1],,3,4,2h[8:1],,7,8,6h[8:1],,4h[8:1],,7-1[8:1],,4,4,7^5[8:1],,3,3,7v4[8:1],,2,2,7,,3,3,5,1,5,1,5,2,5,2,6,3,6,3,7,4,7,4,6v1b[8:1],,3,3,6,,4h[8:1],,2v5b[8:1],,7,7,,,,,6bh[8:1],,2,1,3h[8:1],,7,8,6h[8:1],,3,4,2h[8:1],,7,7,1^2^3b[8:1],,5,5,1-7b[8:1],,6,6,1v4b[8:1],,5,5,1,,6,5,7^5b[8:1],,4,4,7-1b[8:1],,3,3,7v4b[8:1],,2,2,7,,3,3,8,7,6,5,4/7,6,5,4,1,2,3,4,8/5,1,2,3,
{16}4b/6b^1[8:1],,2,2,6,,3,,4v1[8:1],,6,6,,,7,,8h[8:1],,2,7,3h[8:1],,7,4,6h[8:1],,3,5,4h[8:1],,6h[8:1],,3^8[8:1],,7,7,3,,6,,5v8[8:1],,3,3,,,2,,1-3-5b[8:1]*^4b[8:1],,7,7,1,,8,,7p3[8:1]*v4[8:1]/1h[8:1],,,,7,,,,2bh[8:1],,5h[8:1],,4h[8:1],,8h[8:1],,2v5b[8:1],,7,7,2-8b[8:1],,6,6,2^3^4b[8:1],,7,7,2,,6,5,7^4b[8:1],,8,1,7,,,,3h[8:1],,6,4,6,3,5,3,7,5,7,3,5,3,6,4,6,3,6,2,7,6,5,8/4,7,6,5/1,8,7h[8:1]/3h[8:1],,,,
{16}8b-6-4[8:1]*^5[8:1],,7,1,8,,2,,3^8[8:1]*-1[16:1],,4,5,3,,6,,7^6-4[8:1]*^4[8:1],,8,1,7,,2,,1-4b[8:1],,2,8,1,,6,,5bx-7-1[8:1]*^8[8:1],,6,4,5,,3,,2^5[8:1]*-4[16:1],,1,8,2,,6,,3,4,2,6,5,7,3,2,1-3-5[8:1]*-4[8:1],,2,8,1,,6,,5bx-7-1[8:1]*^8[8:1],,6,4,5,,3,,2^5[8:1]*-4[16:1],,1,8,2,,7,,6^7-1[8:1]*^1[8:1],,7,8,6,,3,,4-1b[8:1],,3,5,4,,6,,8bx-6-4[8:1]*^5[8:1],,7,1,8,,2,,3^8[8:1]*-1[16:1],,4,5,3,,7,,3,4,2,6,5,7,4,3,2-4>1b[8:1],,8,,7,,6,,
{16}5b-7-1[8:1]*^8[8:1],,6,4,5,,3,,4-1[8:1]*-2[16:1],,3,5,4,,8,,8hx[16:1],1hx[16:1],7hx[16:1],8hx[16:1],5,4,6,5,1,8,7,6,5h[8:1]/2,2,2,2,1b-3-5[8:1]*^4[8:1],,2,8,1,,6,,5x^8[8:1]*-7[16:1],,6,4,5,,1,,1hx[16:1],8hx[16:1],2hx[16:1],1hx[16:1],4,5,3,4,8,1,2,3,4h[8:1]/6,6,6,6,7bh[8:1],,4h[8:1],,5h[8:1],,1h[8:1],,7v4[8:1],,2,2,7-1[8:1],,3,3,7^6^5[8:1],,2,2,7,,3,4,2^5[8:1],,1,8,2,,,,6h[8:1],,2,1,3,7,8,6,3,4,2,6,5,7,2,1,3,8,3,8,2,3,4,1/5,2,3,4/8,1,2h[8:1]/6h[8:1],,,,
{16}7,3,7,3,7,3,7,3,7,3,7,3,7,3,7,3,6,4,6,4,6,4,6,4,5,3,5,3,5,3,5,3,8,2,8,2,8,2,8,2,8,2,8,2,8,2,8,2,6,5,7,2,1,3,6,5,7,7,3,3,5,5,2,2,6bh[8:1],,1,2,3h[8:1],,8,7,6h[8:1],,4,3,2h[8:1],,7,7,1^2^3b[8:1],,5,5,1-7b[8:1],,6,6,1v4b[8:1],,5,5,1,,6,5,7^5b[8:1],,4,4,7-1b[8:1],,3,3,7v4b[8:1],,2,2,7,,3,3,8,7,6,5,4/7,6,5,4,1,2,3,4,8/5,1,2,3,
{16}4b>8[8:1],,6,6,4,,6,,5V74[16:3],,3,3,,,2,,1h[8:1],,7,2,6h[8:1],,2,5,3h[8:1],,6,4,5h[8:1],,3h[8:1],,6V48[16:3],,4,4,6,,3,,2>5[8:1],,6,6,,,2,,8-6-4b[8:1]*^5b[8:1],,2,2,8,,1,,2q6[8:1]*v5[8:1]/8h[8:1],,,,2,,,,7bh[8:1],,3h[8:1],,5h[8:1],,1h[8:1],,2v5b[8:1],,7,7,2-8b[8:1],,6,6,2^3^4b[8:1],,7,7,2,,6,5,7^4b[8:1],,8,1,7,,,,3h[8:1],,7,8,6,2,1,3,6,5,7,3,4,2,7,8,6,1,6,1,7,6,5,8/4,7,6,5/1,8,7h[8:1]/3h[8:1],,,,
{16}5b-7-1[8:1]*^8[8:1],,6,4,5,,3,,2^5[8:1]*-4[16:1],,1,8,2,,7,,6^7-1[8:1]*^1[8:1],,7,8,6,,3,,4-2-8[8:1]*-1[8:1],,3,5,4,,6,,7bx-5-3[8:1]*^4[8:1],,6,8,7,,1,,2^7[8:1]*-8[16:1],,3,4,2,,6,,3,4,2,6,5,7,2,3,4-2-8[8:1]*-1[8:1],,6,6,4,,7,,8bx-6-4[8:1]*^5[8:1],,7,1,8,,2,,3^8[8:1]*-1[16:1],,4,5,3,,6,,7^6-4[8:1]*^4[8:1],,6,5,7,,2,,1-3-5[8:1]*-4[8:1],,2,8,1,,7,,6bx-8-2[8:1]*^1[8:1],,7,5,6,,4,,3^6[8:1]*-5[16:1],,2,1,3,,7,,3,4,2,7,8,6,2,3,1-3-5[8:1]*-4[8:1],,2,8,1,,6,,
{16}5b-7-1[8:1]*^8[8:1],,6,4,5,,3,,4^1[8:1]*-2[16:1],,5,6,4,,7,,8x,8x,8x,8x,5,4,6,5,1,7,6,5,4h[8:1]/2x,2x,2x,2x,1b-3-5[8:1]*^4[8:1],,2,8,1,,6,,5^8[8:1]*-7[16:1],,4,3,5,,2,,1h,1h,1h,1h,4,5,3,4,1,2,3,4,5h[8:1]/6,6,6,6,7bh[8:1],,4h[8:1],,5h[8:1],,1h[8:1],,7v4[8:1],,2,2,7-1[8:1],,3,3,7^6^5[8:1],,2,2,7,,3,4,2^5[8:1],,1,8,2,,,,6h[8:1],,2,1,3,7,8,6,3,4,2,6,5,7,2,1,3,8,3,8,2,3,4,1/5,2,3,4/8,1,2h[8:1]/6h[8:1],,,,
(220){8}7bh[16:1]/1b-4b[8:1],7h[16:1],7h[16:1],7h[16:1],8h[16:1]/5^2b[8:1],8h[16:1],8h[16:1],8h[16:1],2,3/4,1,3/5,8,4/6,{32}2,3,4,5,6,7,8,1,{8}2h[16:1]/6v3b[8:1],2h[16:1],2h[16:1],2h[16:1],1h[16:1]/4^7b[8:1],1h[16:1],1h[16:1],1h[16:1],7,6/5,8,6/4,1,5/3,{32}6,7,8,1,2,3,4,5,
(230){8}6bh[16:1]/1b-4b[8:1],6h[16:1],6h[16:1],6h[16:1],5h[16:1]/3^8b[8:1],5h[16:1],5h[16:1],5h[16:1],3,2/1,4,2/8,5,1/7,{32}3,2,1,8,7,6,5,4,{8}3h[16:1]/7v2b[8:1],3h[16:1],3h[16:1],3h[16:1],4h[16:1]/1^6b[8:1],4h[16:1],4h[16:1],4h[16:1],6,7/8,5,7/1,4,8/2,{32}6,7,8,1,2,3,4,5,
(240){8}6bh[16:1]/2-5-3v4-2[2:1],6h[16:1],6h[16:1],6h[16:1],7h[16:1],7h[16:1],7h[16:1],7h[16:1],1bh[16:1]/7-4-6v5-7b[2:1],1h[16:1],1h[16:1],1h[16:1],2h[16:1],2h[16:1],2h[16:1],2h[16:1],7bh[16:1]/3-8-2v1-3[2:1],7h[16:1],7h[16:1],7h[16:1],6h[16:1],6h[16:1],6h[16:1],6h[16:1],4bh[16:1]/6-1-7v8-6b[2:1],4h[16:1],4h[16:1],4h[16:1],3h[16:1],3h[16:1],3h[16:1],3h[16:1],5h[16:1]/1^4[8:1],5h[16:1],5h[16:1],5h[16:1],6h[16:1]/3^8[8:1],6h[16:1],6h[16:1],6h[16:1],2h[16:1]/5^8[8:1],2h[16:1],2h[16:1],2h[16:1],1h[16:1]/7^4[8:1],1h[16:1],8h[16:1],8h[16:1],3h[16:1]/7h[16:1],3h[16:1]/7h[16:1],4h[16:1]/8h[16:1],4h[16:1]/8h[16:1],1h[16:1]/5h[16:1],1h[16:1]/5h[16:1],2h[16:1]/6h[16:1],2h[16:1]/6h[16:1],{16}3/7,,6,4,6,,3/7,,2,8,2,,{32}1,2/8,3/7,4/6,5,,,,
{16}2,8,4,5,3,6,4,5,1,7,4,5,3,6,4,5,{8}6h[16:1]/3^8[8:1],6h[16:1],6h[16:1],6h[16:1],7h[16:1]/2v5[8:1],7h[16:1],7h[16:1],7h[16:1],{16}4,6,8,1,7,1,8,1,3,5,2,8,1,8,2,8,{8}1h[16:1]/7v4[8:1],1h[16:1],1h[16:1],1h[16:1],2h[16:1]/5^8[8:1],2h[16:1],2h[16:1],2h[16:1],{16}6,5,7,3,4,2,7,8,6,2,1,3,6,5,7,4,{8}8v3b[8:1]/5h[16:1],5h[16:1],5h[16:1],5h[16:1],4h[16:1]/2v5b[8:1],4h[16:1],4h[16:1],4h[16:1],{16}3,4,2,6,5,7,2,1,3,7,8,6,3,4,2,5,1bhx[8:1]/6bhx[8:1],,,2bhx[8:1]/7bhx[8:1],,,3bhx[16:1]/8bhx[16:1],,1bw5b[8:1],,2b/8b,,1b,,,,
{16}7,1,6,5,7,4,6,5,8,2,4,3,5,2,4,3,{8}2h[16:1]/6^1b[8:1],2h[16:1],2h[16:1],2h[16:1],3h[16:1]/7v4b[8:1],3h[16:1],3h[16:1],3h[16:1],{16}5,3,1,8,2,8,1,8,6,4,7,1,8,1,7,1,{8}8h[16:1]/2v5b[8:1],8h[16:1],8h[16:1],8h[16:1],7h[16:1]/4^1b[8:1],7h[16:1],7h[16:1],7h[16:1],{16}3,4,2,6,5,7,2,1,3,7,8,6,3,4,2,5,{8}1v6b[8:1]/4h[16:1],4h[16:1],4h[16:1],4h[16:1],5h[16:1]/7v4b[8:1],5h[16:1],5h[16:1],5h[16:1],{16}6bh[16:1],5,7,3bh[16:1],4,2,5bx,4bx,7bh[16:1],8,6,2bh[16:1],1,3,6bx,4bx,5bh[16:1],,5bh[16:1],,4bh[16:1]/6bh[16:1],,4bh[16:1]/6bh[16:1],,3bh[16:1]/7bh[16:1],,3bh[16:1]/7bh[16:1],,2bh[16:1]/8bh[16:1],,2bh[16:1]/8bh[16:1],,
{16}1bx,,6x,5bx/7bx,,3x,2bx/4bx,,7x,6bx/8bx,,2x,1bh[16:1]/3bh[16:1],,8bh[16:1]/4bh[16:1],,7bx/5bx,,2,1bx/3bx,,7,6bx/8bx,,3,2bx/4bx,,,2bx/5bx,,6,,1b/7b,,3,4bx/2bx,,6,7bx/5bx,,2,3bx/1bx,,7,8bh[16:1]/6bh[16:1],,1bh[16:1]/5bh[16:1],,2b/4b,,6,5b/7b,,3,4b/2b,,5bh[16:1]/1bw5b[16:1],,5bh[16:1]/1bh[16:1],,,,,,
{32}7bh[8:1]/2,3x,4x,,,,7bh[8:1]/2,3x,4x,,,,6bh[8:1]/1,2x,3x,,,,6bh[8:1]/1,2x,3x,,,,4b/5b,,,,3,,,,2bh[8:1]/7,6x,5x,,,,2bh[8:1]/7,6x,5x,,,,3bh[8:1]/8,7x,6x,,,,3bh[8:1]/8,7x,6x,,,,8b/1b,,,,7,,,,6bh[8:1]/2b,3x,4x,,,,6bh[8:1]/2b,3x,4x,,,,7bh[8:1]/1b,2x,3x,,,,7bh[8:1]/1b,2x,3x,,,,5,,,,4/6,,,,3bh[8:1]/8b,7x,6x,,,,3bh[8:1]/8b,7x,6x,,,,2bh[8:1]/7b,6x,5x,,1b-5b[8:1],,,,,,,,,,,,,,,,
{16}4h[16:1],8h[16:1],4h[16:1],8h[16:1],3h[16:1],7h[16:1],3h[16:1],7h[16:1],2h[16:1],6h[16:1],2h[16:1],6h[16:1],1h[16:1],5h[16:1],1h[16:1],5h[16:1],8h[16:1],4h[16:1],1h[16:1],5h[16:1],2h[16:1],6h[16:1],3h[16:1],7h[16:1],4h[16:1],8h[16:1],3h[16:1],7h[16:1],{32}2,3,4,5,6,7,8,1,{16}5h[16:1],1h[16:1],5h[16:1],1h[16:1],6h[16:1],2h[16:1],6h[16:1],2h[16:1],7h[16:1],3h[16:1],7h[16:1],3h[16:1],8h[16:1],4h[16:1],8h[16:1],4h[16:1],1h[16:1],5h[16:1],8h[16:1],4h[16:1],7h[16:1],3h[16:1],6h[16:1],2h[16:1],5h[16:1],1h[16:1],6h[16:5],2h[4:1],,,,,
{32}3,4,{16}8`5,2,8,2,8,{32}2,3,{16}4`7,1,7,1,7,{32}1,2,3,4,5,,,,{32}7,8,{16}4`1,6,4,6,4,{32}6,7,{16}8`3,5,3,5,3,{32}5,6,7,8,1,,,,{16}3,4,2,6,5,7,2,1,3,7,8,6,{32}2b,3b,4b,5b,6b,7b,8b,1b,{16}2/6,,1,7,1,,2/6,,3,5,3,,{32}6,7,8,1,2,3,4,5,
(115){4}6b^5-7-4-1-3^2b[1:3]/2b^3-1-4-7-5^6[1:3],,,,,,,,
(110){4},,,,,,{4}4hx[32:15]/6hx[2:1],,
(105){49}3h,2h[49:11],,,,,6h[49:11],,,,,,,,,,,,,,3h[49:2],,5h[49:2],,3h[49:2],,5h[49:2],,4h[49:2],,6h[49:2],,4h[49:2],,6h[49:2],,3h[49:2],,5h[49:2],,3h[49:2],,6h[49:2],,4h[49:2],,6h[49:2],,4h[49:2],,5h[49:2],,3h[49:2],,5h[49:2],,3h[49:2],,6h[49:2],,4h[49:2],,6h[49:2],,3h[49:2],,7h[49:2],,4h[49:2],,6h[49:2],,3h[49:2],{98},{16}8x-4[1:4],,,,,,,,4x-8[2:7],,,,,,,,3hx[1:2],,,,,,,,7hx[2:3],,,,,,,
E
