&title=終焉逃避行
&artist=柊マグネタイト
&first=0
&des=『。』
&lv_6=13+
&inote_6=(147){4},{16},,,,,,,,,,,,3x,
7,4x>5[8:7],8h[16:21],{1},{4},{8},{16}8x,
8,4,7x,7,3,
6x,2>8[4:1],5x,1h[16:5],,,,,,,1x,1,7,4x,4,5,
2x,4,3,6,4x,5,3,4,{4}1bx-6[8:1]*-4[8:1],1,
{8}2/5,{16}3,4,{8}3,1/7,{16}6,5,,5,{8}6,4/7,
{16}2,6,2,6,3,7,3,7,2-6[8:1],6,3,7,{4}2,
{8}7/4,{16}6,5,{8}7,8/2,{16}3,4,,4,{8}3,5/1,
{16}3bx,4,2,5,3bx,7,3,4,2bx,5pp4[4:1],3,7,{4}1bx,
{8}2-8[8:1],2,4,4,7-4[8:1],7,5,5,
3,2,6,7,{4}4x>1[8:1]/8x<5[8:1],4/8,
{8}2q6[8:1],2,5,5,8<5[8:1],8,4,4,
5/2,{16}3,4,,6,{8}5,{4}4xp8[8:1]/8xp4[8:1],4/8,
{8}2bx/5bx,{16}3,3bx/4bx,,5,{8}6bx/4bx,{2}2bxq6[8:1]/8bxp4[8:1],
{8}4bx/8bx,{16}6,6bx/5bx,,3,{8}2bx/4bx,{4}5bx/1bx<2b[32:7],5pp4[4:1],
{8}E2f,,,1,{4}1-6[8:1]*-4[8:1],1,
{8}3,4/2,5,6/4,{16}3bx,4,2,6bx,5,7,3bx,4,
{4}2>5[8:1],2pp1[4:1]/6pp5[4:1],{8},,,8V25[16:3],
,8/4V61[16:3],{16},,8x,8x,,,{8}8,B2/E3,E7/B6,
2bx/5bx,{16}3,3,{8}4,8/1,3bx/7bx,{16}6,6,{8}5,8/2,
{16}3xh[8:1]/5xh[8:1],,,7xh[8:1]/1xh[8:1],,,3x/5x,5bx/3bx,,6/2,{8}6/2,5/1-5[8:1],3/7,
{4}5bx/1bx,{16}3,4,{8}3,2/5,{16}6,5,7,1,{8}2bx/8bx,
,3/4,2,{16}8,7bx/1bx,,,{8}6/5,3/7-4[8:1]*p3[8:1],5/4,
7b,{16},,,,3,4,{8}2bx/5bx,{16},,,,6,4,
3bx/7bx,,,1b/5b,,,{8}A6/B5/B4/A3/A5/A4/E5fh[8:1]/E6h[8:3]/E4h[8:3],,,,,2b/6b,
{16}3,4,{8}3,1/8,{16}7-4[8:1],5,8,4,{8}7,{16}8pp2pp4b[32:9],8,
,,{8}4x,6x,8x,{16}2x,6,5x,6,1x,5,4x,5,
{8}7/3,{16}6,5,{8}7,8/1,{16}2q6[8:1],4,1,5,{8}2,{16}7v5[8:1],7,
{8}3,2,1<6[8:1],4,{4}3q7[8:1]*v8[8:1],3,
{8}2b/6b,{16}3,4,{8}3,1/8,{16}7-3[8:1],3,5,1,{8}7,{16}2,2,
{8}4<7[8:1],2,1>4[8:1],8,{4}8q5[8:1]*v6[8:1],8,
{8}7bx/3bx,{16}6,6bx/5bx,,3,{8}8bx/3bx,{2}4bxq1[8:1]/7bx<4[8:1],
{8}8bx,{16}2,2bx/5bx,,7,{8}7bx/1bx,{2}5bx/4bxw8[8:1],
{8}6bx/5bx-2[8:1],{16}8,8,{8}5,{16}6,6,{8}1-6[8:1],{16}5,5,{8}1,8,
2-4[32:3],{16}1x<6[8:1],8x,{8}2xv5[8:1],1,{4}2,4>8[8:1],
4/5qq6[4:1],{8}5,{16}1,1,{8}2>5[8:1],6,7p3[8:1],8v2[8:1],
,,5,5,{4}5-8[8:1]*-2[8:1],5,
{8}3bx/4bx-7[8:1],{16}1,1,{8}4,{16}3,3,{8}8-3[8:1],{16}4,4,{8}8,1,
2/4<7[8:1],6,3,4,{4}5>2[8:1]*p8[8:1],5,
{8}1/6,{16}7,5,{8}6,{16}3,4,{8}1h,1h,1h,1h,
7/4,{16}6,5,{8}6,8/2,{16}3,4,,4,{8}3,5/2,
{16}7,3,7,3,6,2,6,2,7-3[8:1],3,6,2,{4}7,
{8}2/5,{16}3,4,{8}2,1/7,{16}6,5,,5,{8}6,4/8,
{16}6bx,5,7,4,6bx,2,6,5,{8}7-4[32:3],2-5[32:3],,,7-1[8:1],
7,4,4,2-5[8:1],2,4,4,
6,7,1,2,{4}3-6[8:1]/7-2[8:1],3/7,
{8}7p3[8:1],7,4,4,1>4[8:1],1,5,5,
4/7,{16}6,5,,3,{8}4,2/6,{16}2x,4,3,6x,5,7,
4xh[8:1]/6xh[8:1],,,2xh[8:1]/8xh[8:1],,,{8}4/6,{12}3,3,5,2,2,4,
{16}5xh[8:1]/3xh[8:1],,,7xh[8:1]/1xh[8:1],,,{8}3/5,{12}6,6,4,5,5,3,
{16}2,4,{8}3h[8:1],{16}7,5,{8}6h[8:1],{16}3,4,{8}2h[8:1],{16}6,5,{8}7h[8:1],
3,{16}3,4,{8}2,1/8,6,{16}6,5,{8}7,8/4,
{1}4b/8b,
{8}5/4,3,4/5,6,{2}Cfh[4:1],
{4}7<4[8:1],7qq8[4:1]/3qq4[4:1],{8},,,1V74[16:3],
,1/5V38[16:3],{16},,1x,1x,,,{8}1,B7/E7,E3/B3,
7bx/4bx,{16}6,6,{8}5,1/8,6bx/2bx,{16}3,3,{8}4,1/7,
{16}6xh[8:1]/4xh[8:1],,,2xh[8:1]/8xh[8:1],,,6x/4x,4bx/6bx,,2/5,{8}2/5,4/8-4[8:1],6/2,
{4}4bx/8bx,{16}6,5,{8}6,7/4,{16}3,4,2,8,{8}7bx/1bx,
,6/5,7,{16}1,2bx/8bx,,,{8}3/4,2x/6-1[8:1]*-2[8:1],7/4,
6b,{16},,,,6,5,{8}7bx/4bx,{16},,,,3,5,
6bx/2bx,,,8b/4b,,,{8}A6h[8:3]/A2h[8:3],{24},,,,,,,,,,,,8x/1x,
2/7,3p6[12:17]/6q3[12:17],4/5,{1},{4},,,{16},{48},{1}1>4[2:3]/5p8[2:3],
{16},,,,,,,,,,,,,,,,2x,
4,3,5,4,6,5,7x,,2x,4,3,5,4,6,5,
{8}7bx/3bx,{16}6,5,{8}6,8/1,{16}2-5[8:1],4,1,5,{8}2,{16}8z4-6b[32:9],8,
,,{8}5x,3x,1x,{16}7x,3,4x,3,8x,4,5x,4,
{8}2/6,{16}3,4,{8}2,1/8,{16}7p3[8:1],5,8,4,{8}7,{16}2v4[8:1],2,
{8}6,7,8>3[8:1],5,{4}6p2[8:1]*v1[8:1],6,
{8}7b/3b,{16}6,5,{8}6,8/1,{16}2-6[8:1],6,4,8,{8}2,{16}7,7,
{8}5>2[8:1],7,8<5[8:1],1,{4}1V74[8:1]*v3[8:1],1,
{8}2bx/6bx,{16}3,3bx/4bx,,6,{8}1bx/6bx,{2}5bxp8[8:1]/2bx>5[8:1],
{8}1bx,{16}7,7bx/4bx,,2,{8}2bx/8bx,{2}4bx/5bxw1[8:1],
{8}3bx/4bx-7[8:1],{16}1,1,{8}4,{16}3,3,{8}8-3[8:1],{16}4,4,{8}8,1,
7-5[32:3],{16}8x>3[8:1],1x,{8}7xv4[8:1],8,{4}7,5<1[8:1],
5/4qq5[4:1],{8}4,{16}8,8,{8}7-4[8:1],3,2q6[8:1],1v7[8:1],
,,4,4,{4}4-1[8:1]*-7[8:1],4,
{8}6bx/5bx-2[8:1],{16}8,8,{8}5,{16}6,6,{8}1-6[8:1],{16}5,5,{8}1,8,
7/5>2[8:1],3,6,5,{4}4<7[8:1]*q1[8:1],4,
{8}8/3,{16}2,4,{8}3,{16}6,5,{8}8,{16}3x,5,,6x,{8}4,
3bx/4bx-7[8:1],{16}1,1,{8}4,{16}3,3,{8}8-3[8:1],{16}4,4,{8}8,1,
2>5[8:1],{16}1x<6[8:1],8x,{8}2xz6b[32:7],1,{4}2,5p4[16:3],
5/4,{16}3,3,5,4,{8}6>3[8:1],7,2q7[8:1],1v8[8:1],
,,5,5,{4}5<8[8:1]*>2[8:1],5,
{8}6bx/5bx-2[8:1],{16}8,8,{8}5,{16}6,6,{8}1-6[8:1],{16}5,5,{8}1,8,
7/5V31[16:3],3,6,5,{4}4V68[8:1]*v2[8:1],4,
{1}B8/B4/E1h[2:1]/E5h[8:5]/B1h[4:3]/B5h[8:7],
