&title=Pictorial
&artist=大島はるな 「マイてつ」より
&first=0.02
&des=限りなく彩色へ
&lv_5=12+
&lv_7=蔵
&inote_5=(120){4},,,,,,
{16}2,,,5,{8}3,6p4[4:3],6,,,,,,,,
{16}2,,,5,{8}3,7p4[4:3],7,,,,,,,,
{16}1,,,5,{8}3,7pp4[4:3],7,,,,,,3,2,
{16}1,,,6,{8}4,8,8h[4:1],,{16}3,4,3,4,1,8,1,8,5,6,5,6,
{8}1b/8b,,2h[4:1],,3h[4:1],,4h[4:1],,{16}5q2[8:1],,,3,,,3,,
{8}1/4h[4:1],,3,5h[4:1]/2,,6,4qq1[3:1]/7,,8h[4:1],,,,
{8}2h[4:1],5,4,1h[4:1],3,2,7/8,,2-4[8:1]/5-1[8:1],,2/5,,
{8}7h[4:1],4,5,8h[4:1],6,7,{16}2,1,2,1,3,8,3,8,4,7,4,7,
{2}6b<3[2:1]/5bp4[2:1],,{8}1/8,,2-5[8:1],5,
{8}6-1[8:1]/2,,6/4,3h[4:1],,4,5/2,,{16}1q5[8:1],,,6,,,6,,
{8}7h[4:1]/4,5,6,8h[4:1]/5,6,7,1/2,,8-4[8:1]/3-1[8:1],,8/3,,
{8}2h[4:1]/5,4,3,1h[4:1]/4,3,2,{16}7,8,7,8,6,1,6,1,5,2,5,2,
{8}4qq4[4:1],4<2[8:3],,,,,3b,3,2/4,1/5,6/8,7,
{8}1-6[8:1],,5,5p4[3:1],,,2,2h[8:3],,,4,,
{8}1pp1[4:1],1<3[8:3],,,,,7b,7,6/8,5/1,2/4,3,
{16}2,1,2,1,3,8,3,8,4,7,4,7,5,6,5,6,3,4,3,4,1,8,1,8,
{4}2bV84[3:1]/7bV15[3:1],,,2b/7b,
{16}1b>4[12:1],,,8,1q5[8:1],,1,,4,,3,,1>4[12:1],,,7,1q6[8:1],,8,,4,,3,,
{16}1>4[12:1],,,7,1q7[8:1],,8,,4,,3,,1>5[12:1],,,8,1qq5[24:7],,1,,3,,3,,
{4},1-5[8:1]/8-6[8:1],1/8-4[8:1],8/3-1[8:1],{16}3/8,,,7,1,,6,,
{8}5h[4:1],8,7,6h[4:1],1,8,7pp2[3:1],7,3<6[12:1],,,,
{16}8b<5[12:1]/4,,,1,8p4[8:1],,8,,5h[8:1],,,,8<5[12:1]/3,,,2,8p3[8:1],,1,,5h[8:1],,,,
{16}8<5[12:1]/2,,,1,8p2[8:1],,8,,5h[8:1],,,,8<4[12:1]/3,,,2,8pp4[24:7],,8,,6,,6,,
{4},8-4[8:1]/1-3[8:1],8/1-5[8:1],1/6-8[8:1],{16}6/1,,,2,8,,3,,
{8}4h[4:1],1,2,3h[4:1],8,1,2qq6[4:1],2,,,,
{8}4/5,4b>5[2:1]/5b<4[2:1],,,,,,,,{16}7,6,5,4,1,2,3,4,
{16}8<5[8:1],,,2,8>3[8:1],,1,,6/8,,7,,4>1[8:1],,,6,4V62[16:3],,5,,2/4,,3,,
{16}4>1[8:1],,,8,4<7[8:1],,6,,2/4,,3,,8<5[8:1],,,4,8V26[16:3],,2,,6/8,,7,,
{16}8,1,8,1,7,2,7,2,6,3,6,3,5,4,5,4,6,3,5,4,7,2,5,4,
{1}3b-6[2:5]/6bq2[2:5],
E
&inote_7=(120){4},,,,,,
{16}2,,,5,{8}3,6p4[4:3],6,,,3,,,,,
{16}2,,,5,{8}3,7p4[4:3],7,,,,3,,2,,
{16}1,,,5,{8}3,7pp4[4:3],7,,,,,,3,2,
{16}1,,,6,{8}4,8,8h[4:1],,{16}3,4,3,4,1,8,1,8,5,6,5,6,
{8}1b/8b,,2h[4:1],,3h[4:1],,4h[4:1],,{16}5q2[8:1],,,3,,,3,,
{8}1/4h[4:1],,3,5h[4:1]/2,,6,4qq1[3:1]/7,,8h[4:1],,,,
{8}2h[4:1],5,4,1h[4:1],3,2,7/8,,2-4[8:1]/5-1[8:1],,2/5,,
{8}7h[4:1],4,5,8h[4:1],6,7,{16}2,1,2,1,3,8,3,8,4,7,4,7,
{2}6b<3[2:1]/5bp4[2:1],,{8}1/8,,2-5[8:1],5,
{8}6-1[8:1]/2,,6/4,3h[4:1],,4,5/2,,{16}1q5[8:1],,,6,,,6,,
{8}7h[4:1]/4,5,6,8h[4:1]/5,6,7,1/2,,4-8[8:1]/7-5[8:1],,4/7,,
{8}2h[4:1]/5,4,3,1h[4:1]/4,3,2,{16}7,8,7,8,6,1,6,1,5,2,5,2,
{8}4qq4[4:1],4<2[8:3],,,,,3b,3,2/4,1/5,6/8,7,
{8}1-6[8:1],,5,5p4[3:1],,,2,2h[8:3],,,4,,
{8}1pp1[4:1],1<3[8:3],,,,,7b,7,6/8,5/1,2/4,3,
{16}2,1,2,1,3,8,3,8,4,7,4,7,5,6,5,6,3,4,3,4,1,8,1,8,
{4}2bV84[3:1]/7bV15[3:1],,,2b/7b,
{16}3-5[16:1]/6-3[16:1],,,3/6,,,1-5[12:1],,1/7,,,,6p2[16:1]*-3[16:1],,,6,,,1V74[8:1],,1/7,,,,
{16}6-2[16:1]*-3[16:1],,,6,,,1<6[8:1],,1/6>3[8:1],,,,1h[16:3],,,2h[16:3],,,3h[8:1],,4,,5/6,,
{4}2/7,1-5[8:1]/8-6[8:1],1/8-4[8:1],8/3-1[8:1],{16}3/8,,,7,1,,6,,
{16}1,5,2,4,3,,8,4,7,5,6,,{8}2qq7[3:1],2,6>3[8:1],,,,
{16}6-4[16:1]/3-6[16:1],,,6/3,,,8-4[12:1],,8/2,,,,3q7[16:1]*-6[16:1],,,3,,,8V25[8:1],,8/2,,,,
{16}3-7[16:1]*-6[16:1],,,3,,,8>3[8:1],,8/3<6[8:1],,,,8h[16:3],,,7h[16:3],,,6h[8:1],,5,,4/3,,
{4}2/7,8-4[8:1]/1-3[8:1],8/1-5[8:1],1/6-8[8:1],{16}6/1,,,2,8,,3,,
{16}8,4,7,5,6,,1,5,2,4,3,,{8}7pp3[4:1],7,,,,
{8}4/5,4b>5[2:1]/5b<4[2:1],,,,,,,,{16}7,6,5,4,1,2,3,4,
{16}8<5[8:1],,,2,8>3[8:1],,1,,6/8,,7,,4>1[8:1],,,6,4V62[16:3],,5,,2/4,,3,,
{16}4>1[8:1],,,8,4<7[8:1],,6,,2/4,,3,,8<5[8:1],,,4,8V26[16:3],,2,,6/8,,7,,
{16}8,1,8,1,7,2,7,2,6,3,6,3,5,4,5,4,6,3,5,4,7,2,5,4,
{1}3b-6[2:5]/6bq2[2:5],
E
